Важное объявление!
У Нас Все раздачи мультитрекерные, при нуле пиров в релизах, можете смело вставать на закачку!
 
Автор Сообщение

HUNTER

Стаж:
4 года 5 месяцев
Сообщений:
60857

Репутация: 101

[+] [-]
Вне форума [Профиль] [ЛС]

Откровения сексуального маньяка главе криминальной полиции / Убийца - Сексуальный маньяк / Rivelazioni di un maniaco sessuale al capo della squadra mobile
Страна: Италия
Студия: Produzioni Cinematografiche Roman
Жанр: sexploitation, джалло
Год выпуска: 1972
Продолжительность: 01:36:43
Перевод: Одноголосый закадровый Erretik
Cубтитры: немецкие, английские
Оригинальная аудиодорожка: итальянский
Режиссер: Роберто Бьянки Монтеро / Roberto Bianchi Montero
В ролях: Фарли Грейнджер, Феми Бенусси, Аннабелла Инконтреро, Сильва Косина
Описание: Полицейский инспектор Капуана расследует убийство супруги известного военного, которая была обнаружена обнаженной и выпотрошенной в номере шикарного отеля. Полицейский жалуется своей жене, что везде натыкается на стену молчания в своем расследовании. Никто из ближайшего окружения жертвы не хочет ничего рассказывать. Инспектору Капуана не остается ничего другого, как искать убийцу среди традиционно неблагополучного криминально ориентированного контингента: проституток, мелких преступников, гомосексуалистов, бездомных, хиппи. Но вскоре обнаруживают еще одну женщину, принадлежащую к высшему классу, которая была жестоко убита на пляже лунной ночью. Она также изменяла своему мужу, о чем свидетельствовали фотографии, оставленные на ее трупе. Среди представителей высшего общества начинает распространяться паника. Но, тем не менее, между обсуждений очередного убийства, богатые дамочки не прекращают предаваться самым разнообразным любовным утехам. Вскоре появляется третья жертва, и инспектор Капуана понимает, что убийца каким-то образом должен быть связан с высшим обществом сексуально неудовлетворенных богатых вдов и домохозяек…
Под таким названием картина вышла в США, куда предприимчивые продюсеры добавили сцены ХХХ с участием порнозвезд Гарри Римса и Тины Расселл. Рекламный постер гласил, что это порнографический фильм с участие Фарли Грейнджера, хотя тот был обыкновенным актером и ни в чем «предрассудительном или провокационном» замечен не был. Актер угрожал дистрибьюторам картины судебным преследованием за то, что они использовали его имя в перемонтированной версии, и те, в конце концов, изъяли фильм из проката в США. Правда, в Европе картина осталась в прокате. Всего в картине семь трупов, из которых всего один мужчина. Обнаруживают женщину с перерезанным горлом и многочисленными колотыми ранами. Женщину закалывают в шею. Еще одну представительницу прекрасного полу убивают ножом. Наконец, мужчина падает с лестницы и разбивается. Очередную красавицу убивают ножом. Женщине перерезают горло и для пущей уверенности закалывают ножом. Наконец, женщину полосуют бритвой до смерти.
Доп. информация: Русская звуковая дорожка взята с этой раздачи http://rutracker.org/forum/viewtopic.php?t=4658348 автору большое спасибо
Оригинальный DVD предоставлен rotorovv большое спасибо.
При пересборе двд были использованы программы:
PgcDemux - разделение компонентов диска на файлы
Muxman - мультиплексирование и авторинг DVD
VobBlanker - реавторинг DVD

Скрин завершения проекта

Бонусы: Коментарии, галерея, интервью
Сэмпл: http://sendfile.su/1053965
Тип релиза: DVD9 (Custom)
Контейнер: DVD-Video
Видео: PAL 16:9 (720x576) VBR Auto Pan&Scan
Аудио: Russian (Dolby AC3, 192 Кбит/сек, 2 ch)
Аудио 2: Italiano (Dolby AC3, 192 Кбит/сек, 2 ch)
Аудио 3: Deutsch (Dolby AC3, 192 Кбит/сек, 2 ch)
Аудио 4: Deutsch (Dolby AC3, 192 Кбит/сек, 2 ch)
Формат субтитров: softsub (SRT)

DVDInfo

Size: 7.63 Gb ( 8 000 442 KBytes ) - DVD-9
Enabled regions: 1, 2, 3, 4, 5, 6, 7, 8
VTS_01 :
Play Length: 01:36:43
Video: PAL 16:9 (720x576) VBR, Auto Pan&Scan
Audio:
Russian (Dolby AC3, 2 ch)
Italiano (Dolby AC3, 2 ch)
Deutsch (Dolby AC3, 2 ch)
Deutsch (Dolby AC3, 2 ch)
Subtitles:
Deutsch
Deutsch
English
English
VTS_02 :
Play Length: 00:21:00+00:25:13
Video: PAL 16:9 (720x576) VBR, Auto Pan&Scan
Audio:
Italiano (Dolby AC3, 2 ch)
Subtitles:
Deutsch
English
Menu Video:
PAL 16:9 (720x576) VBR
Auto Pan&Scan
Menu Audio:
Not specified (Dolby AC3, 2 ch)
Menu Subtitles:
Not specified
Menu English Language Unit :
Root Menu

MediaInfo

Общее
Полное имя : L:\Rivelazioni di un maniaco sessuale al capo della squadra mobile_1972\VIDEO_TS\VTS_01_1.VOB
Формат : MPEG-PS
Размер файла : 1024 Мбайт
Продолжительность : 18 м.
Режим общего битрейта : Переменный
Общий поток : 7698 Кбит/сек
Видео
Идентификатор : 224 (0xE0)
Формат : MPEG Video
Версия формата : Version 2
Профиль формата : Main@Main
Параметр BVOP формата : Да
Параметр матрицы формата : Выборочная
Параметр GOP формата : M=3, N=12
Продолжительность : 18 м.
Вид битрейта : Переменный
Битрейт : 6776 Кбит/сек
Максимальный битрейт : 9100 Кбит/сек
Ширина : 720 пикселей
Высота : 576 пикселей
Соотношение сторон : 16:9
Частота кадров : 25,000 кадров/сек
Стандарт вещания : PAL
Цветовое пространство : YUV
Субдискретизация насыщенности : 4:2:0
Битовая глубина : 8 бит
Тип развёртки : Чересстрочная
Порядок развёртки : Верхнее поле первое
Метод сжатия : С потерями
Бит/(Пиксели*Кадры) : 0.654
Размер потока : 901 Мбайт (88%)
Аудио #1
Идентификатор : 189 (0xBD)-128 (0x80)
Формат : AC-3
Формат/Информация : Audio Coding 3
Расширение режима : CM (complete main)
Параметр Endianness формата : Big
Режим смешивания : DVD-Video
Продолжительность : 18 м.
Вид битрейта : Постоянный
Битрейт : 192 Кбит/сек
Каналы : 2 канала
Расположение каналов : Front: L R
Частота : 48,0 КГц
Битовая глубина : 16 бит
Метод сжатия : С потерями
Задержка видео : -80 мс.
Размер потока : 25,5 Мбайт (2%)
Аудио #2
Идентификатор : 189 (0xBD)-129 (0x81)
Формат : AC-3
Формат/Информация : Audio Coding 3
Расширение режима : CM (complete main)
Параметр Endianness формата : Big
Режим смешивания : DVD-Video
Продолжительность : 18 м.
Вид битрейта : Постоянный
Битрейт : 192 Кбит/сек
Каналы : 2 канала
Расположение каналов : Front: L R
Частота : 48,0 КГц
Битовая глубина : 16 бит
Метод сжатия : С потерями
Задержка видео : -80 мс.
Размер потока : 25,5 Мбайт (2%)
Аудио #3
Идентификатор : 189 (0xBD)-130 (0x82)
Формат : AC-3
Формат/Информация : Audio Coding 3
Расширение режима : CM (complete main)
Параметр Endianness формата : Big
Режим смешивания : DVD-Video
Продолжительность : 18 м.
Вид битрейта : Постоянный
Битрейт : 192 Кбит/сек
Каналы : 2 канала
Расположение каналов : Front: L R
Частота : 48,0 КГц
Битовая глубина : 16 бит
Метод сжатия : С потерями
Задержка видео : -80 мс.
Размер потока : 25,5 Мбайт (2%)
Аудио #4
Идентификатор : 189 (0xBD)-131 (0x83)
Формат : AC-3
Формат/Информация : Audio Coding 3
Расширение режима : CM (complete main)
Параметр Endianness формата : Big
Режим смешивания : DVD-Video
Продолжительность : 18 м.
Вид битрейта : Постоянный
Битрейт : 192 Кбит/сек
Каналы : 2 канала
Расположение каналов : Front: L R
Частота : 48,0 КГц
Битовая глубина : 16 бит
Метод сжатия : С потерями
Задержка видео : -80 мс.
Размер потока : 25,5 Мбайт (2%)
Текст #1
Идентификатор : 189 (0xBD)-32 (0x20)
Формат : RLE
Формат/Информация : Run-length encoding
Режим смешивания : DVD-Video
Задержка видео : 3 с. 840 мс.
Текст #2
Идентификатор : 189 (0xBD)-34 (0x22)
Формат : RLE
Формат/Информация : Run-length encoding
Режим смешивания : DVD-Video
Задержка видео : 3 с. 840 мс.
Текст #3
Идентификатор : 189 (0xBD)-35 (0x23)
Формат : RLE
Формат/Информация : Run-length encoding
Режим смешивания : DVD-Video
Продолжительность : 18 м.
Задержка видео : 1 с. 160 мс.
Меню

Постеры

Скриншоты меню


_________________
Показать сообщения:    

Текущее время: Сегодня 06:29

Часовой пояс: GMT



Вы не можете начинать темы
Вы не можете отвечать на сообщения
Вы не можете редактировать свои сообщения
Вы не можете удалять свои сообщения
Вы не можете голосовать в опросах
Вы не можете прикреплять файлы к сообщениям
Вы не можете скачивать файлы
Наши партнеры: интернет магазин Ивановского трикотажа textilla.ru