Важное объявление!
У Нас Все раздачи мультитрекерные, при нуле пиров в релизах, можете смело вставать на закачку!
Статистика раздачи
Размер:     |    Зарегистрирован:     |    Скачан:     |   
Нет
 
     
 
 
Автор Сообщение

HUNTER

Стаж:
5 лет 1 месяц
Сообщений:
68449

Репутация: 101

[+] [-]
Вне форума [Профиль] [ЛС]

Отец-молодец / Delivery Man
«Тебе от 17 до 23? Ты уверен, что это не твой отец?»-
Страна: США
Студия: DreamWorks SKG
Жанр: комедия, драма
Год выпуска: 2013
Продолжительность: 01:44:56-Перевод: Профессиональный (дублированный) BD CEE
Cубтитры: русские (надписи и т.д), русские, английские.
Оригинальная аудиодорожка: английский-Режиссер: Кен Скотт / Ken Scott
В ролях: Винс Вон, Крис Прэтт, Коби Смолдерс, Анджей Блюменфельд, Саймон Делани, Бобби Мойнахан, Дэйв Паттен, Адам Чанлер-Берат, Бритт Робертсон, Джек Рейнор.
Описание: Дэвид Возняк — самый простой парень, в жизни которого начались сплошные проблемы. Он работает в мясной лавке своего отца, но тот собирается уволить его, так как очень не доволен работой сына. Кроме финансовых проблем Дэвид начинает испытывать кризис среднего возраста, из-за чего у него возникают большие сложности в общении с окружающими. Но в один прекрасный момент жизнь парня меняется самым кардинальным образом, после того как он узнает, что является отцом более пятисот детей. Будучи юным студентом он сдал свое семя в клинику репродукции, подписавшись именем «Чудо бык», однако из-за чудовищной ошибки, им оплодотворили всех женщин, обратившихся в больницу. После того случая прошло несколько лет, и дети решили узнать, кто является их отцом, для чего они обратились в суд, подав иск на клинику репродукции...-Рип от: anonymous (HDBits internal).
Сэмпл: sendfile→, rusfolder→
Тип релиза: BDRip 720p
Контейнер: MKV
Видео: 1280 x 532 (2.406), x264 r2409 , CRF, L4.1, DXVA, 8 815 Kbps
Аудио: 48 kHz, DD 5.1 - 640 kbps |Дубляж, BD CEE|
Аудио 2: 48 kHz, DD 5.1 - 640 kbps |Оригинал|

MediaInfo

Полное имя : Delivery.Man.2013.720p.BluRay DD5.1.x264.Rus.Eng.mkv
Формат : Matroska
Версия формата : Version 4 / Version 2
Размер файла : 7.54 GiB
Продолжительность : 1h 44mn
Общий поток : 10.3 Mbps
Название фильма : Delivery Man (2013) | Rip by anonymous (HDBits) | Release for Rutracker | by Djex
Дата кодирования : UTC 2014-07-05 11:14:17
Программа кодирования : mkvmerge v6.5.0 ('Isn't she lovely') built on Oct 20 2013 12:50:05
Библиотека кодирования : libebml v1.3.0 + libmatroska v1.4.1
Video
Идентификатор : 1
Формат : AVC
Формат/Информация : Advanced Video Codec
Профиль формата : High@L4.1
Параметр CABAC формата : Yes
Параметр ReFrames формата : 12 frames
Идентификатор кодека : V_MPEG4/ISO/AVC
Продолжительность : 1h 44mn
Битрейт : 8 802 Kbps
Ширина : 1 280 pixels
Высота : 532 pixels
Соотношение сторон : 2.40:1
Режим частоты кадров : Constant
Частота кадров : 23.976 fps
Цветовое пространство : YUV
Субдискретизация насыщенности : 4:2:0
Битовая глубина : 8 bits
Тип развёртки : Progressive
Бит/(Пиксели*Кадры) : 0.539
Размер потока : 6.45 GiB (86%)
Заголовок : Delivery Man (2013) by Djex
Библиотека кодирования : x264 core 142 r2409 d6b4e63
Настройки программы : cabac=1 / ref=12 / deblock=1:-3:-3 / analyse=0x3:0x133 / me=umh / subme=10 / psy=1 / psy_rd=1.00:0.00 / mixed_ref=1 / me_range=32 / chroma_me=1 / trellis=2 / 8x8dct=1 / cqm=0 / deadzone=21,11 / fast_pskip=0 / chroma_qp_offset=-2 / threads=12 / lookahead_threads=3 / sliced_threads=0 / nr=0 / decimate=0 / interlaced=0 / bluray_compat=0 / constrained_intra=0 / bframes=14 / b_pyramid=2 / b_adapt=2 / b_bias=0 / direct=3 / weightb=1 / open_gop=0 / weightp=2 / keyint=250 / keyint_min=24 / scenecut=40 / intra_refresh=0 / rc_lookahead=250 / rc=crf / mbtree=0 / crf=13.7 / qcomp=0.75 / qpmin=0 / qpmax=69 / qpstep=4 / vbv_maxrate=38000 / vbv_bufsize=30000 / crf_max=0.0 / nal_hrd=none / filler=0 / ip_ratio=1.40 / pb_ratio=1.30 / aq=2:0.75
Default : Yes
Forced : No
Audio #1
Идентификатор : 2
Формат : AC-3
Формат/Информация : Audio Coding 3
Расширение режима : CM (complete main)
Параметр Endianness формата : Big
Идентификатор кодека : A_AC3
Продолжительность : 1h 44mn
Вид битрейта : Constant
Битрейт : 640 Kbps
Каналы : 6 channels
Расположение каналов : Front: L C R, Side: L R, LFE
Частота : 48.0 KHz
Битовая глубина : 16 bits
Метод сжатия : Lossy
Размер потока : 480 MiB (6%)
Заголовок : DD 5.1 - 640 kbps |Дубляж, BD CEE|
Язык : Russian
Default : Yes
Forced : No
Audio #2
Идентификатор : 3
Формат : AC-3
Формат/Информация : Audio Coding 3
Расширение режима : CM (complete main)
Параметр Endianness формата : Big
Идентификатор кодека : A_AC3
Продолжительность : 1h 44mn
Вид битрейта : Constant
Битрейт : 640 Kbps
Каналы : 6 channels
Расположение каналов : Front: L C R, Side: L R, LFE
Частота : 48.0 KHz
Битовая глубина : 16 bits
Метод сжатия : Lossy
Размер потока : 480 MiB (6%)
Заголовок : DD 5.1 - 640 kbps |Оригинал|
Язык : English
Default : No
Forced : No
Text #1
Идентификатор : 4
Формат : UTF-8
Идентификатор кодека : S_TEXT/UTF8
Идентификатор кодека/Информация : UTF-8 Plain Text
Заголовок : Надписи и т.д
Язык : Russian
Default : Yes
Forced : No
Text #2
Идентификатор : 5
Формат : UTF-8
Идентификатор кодека : S_TEXT/UTF8
Идентификатор кодека/Информация : UTF-8 Plain Text
Заголовок : Полные
Язык : Russian
Default : No
Forced : No
Text #3
Идентификатор : 6
Формат : UTF-8
Идентификатор кодека : S_TEXT/UTF8
Идентификатор кодека/Информация : UTF-8 Plain Text
Язык : English
Default : No
Forced : No
Menu
00:00:00.000 : en:Openning Credits
00:04:12.335 : en:David Wozniak
00:10:42.391 : en:Pseudonym "Starbuck"
00:15:03.861 : en:Profile *1
00:21:04.054 : en:The Role of a Lifetime
00:27:42.494 : en:Kristen
00:35:00.556 : en:Guardian Angel
00:40:03.400 : en:A Friend
00:45:06.286 : en:Starbuck Kids
00:51:59.115 : en:Viggo
00:58:35.011 : en:Finding Each Other
01:04:47.216 : en:Family
01:07:59.325 : en:Countersuit
01:15:05.125 : en:Court
01:20:11.223 : en:The Verdict
01:24:59.677 : en:I Am Starbuck
01:30:48.317 : en:534
01:39:56.490 : en:End Credits

Скриншоты

Source vs Encode vs SPARKS








_________________
Показать сообщения:    

Текущее время: Сегодня 04:40

Часовой пояс: GMT



Вы не можете начинать темы
Вы не можете отвечать на сообщения
Вы не можете редактировать свои сообщения
Вы не можете удалять свои сообщения
Вы не можете голосовать в опросах
Вы не можете прикреплять файлы к сообщениям
Вы не можете скачивать файлы