Важное объявление!
У Нас Все раздачи мультитрекерные, при нуле пиров в релизах, можете смело вставать на закачку!
 
Автор Сообщение

HUNTER

Стаж:
4 года 8 месяцев
Сообщений:
62091

Репутация: 101

[+] [-]
Вне форума [Профиль] [ЛС]

Отдам котят в хорошие руки -
Год выпуска: 2012
Страна: Россия
Жанр: комедия
Продолжительность: 01:34:32
Перевод: Оригинал-Режиссер: Александр Баршак
Сценарий: Вячеслав Рогожкин, Вадим Тартаковский
Продюсер: Наталья Серова
Оператор: Владимир Башта
Художник: Эдуард Галкин-В ролях: Карина Андоленко , Ирина Медведева , Денис Бургазлиев , Михаил Горевой , Тимофей Трибунцев , Надежда Иванова , Наталья Серова
-Описание: В канун Нового Года жизнь подбрасывает Кате целый ворох проблем: уходит любовник, на работе грядут серьезные перемены, а под дверью оказывается коробка с котятами. Пытаясь пристроить котят в «хорошие руки», она попадает в целый водоворот событий, что в конечном итоге позволяет ей переосмыслить многое в своей жизни.-Рейтинг:-Качество: SATRip
Формат: AVI
Видео кодек: XviD
Аудио кодеk: AC3
Видео: 720x384 (1.88:1), 25 fps, ~1748 kbps avg, 0.25 bit/pixel
Аудио: Аудио #1: 48 kHz, AC3 Dolby Digital, 2/0 (L,R) ch, ~192 kbps

МедиаИнфо

Код: copyText_writeLink('this.parentNode.parentNode.nextSibling.nextSibling'); General
Complete name : Otdam.kotyat.v.khoroshiye.ruki.XviD.2012.SATRip.avi
Format : AVI
Format/Info : Audio Video Interleave
File size : 1.29 GiB
Duration : 1h 34mn
Overall bit rate : 1 950 Kbps
Writing application : VirtualDubModRus 1.5.10.2 (build 2542/release)
Writing library : VirtualDubMod build 2542/release
Video
ID : 0
Format : MPEG-4 Visual
Format profile : Simple@L3
Format settings, BVOP : No
Format settings, QPel : No
Format settings, GMC : No warppoints
Format settings, Matrix : Default (H.263)
Codec ID : XVID
Codec ID/Hint : XviD
Duration : 1h 34mn
Bit rate : 1 748 Kbps
Width : 720 pixels
Height : 384 pixels
Display aspect ratio : 1.875
Frame rate : 25.000 fps
Color space : YUV
Chroma subsampling : 4:2:0
Bit depth : 8 bits
Scan type : Progressive
Bits/(Pixel*Frame) : 0.253
Stream size : 1.15 GiB (90%)
Writing library : XviD 1.2.1 (UTC 2008-12-04)
Audio
ID : 1
Format : AC-3
Format/Info : Audio Coding 3
Mode extension : CM (complete main)
Codec ID : 2000
Duration : 1h 34mn
Bit rate mode : Constant
Bit rate : 192 Kbps
Channel(s) : 2 channels
Channel positions : Front: L R
Sampling rate : 48.0 KHz
Bit depth : 16 bits
Stream size : 130 MiB (10%)
Alignment : Aligned on interleaves
Interleave, duration : 40 ms (1.00 video frame)
Interleave, preload duration : 512 ms
-
- -

_________________
Показать сообщения:    

Текущее время: Сегодня 16:23

Часовой пояс: GMT



Вы не можете начинать темы
Вы не можете отвечать на сообщения
Вы не можете редактировать свои сообщения
Вы не можете удалять свои сообщения
Вы не можете голосовать в опросах
Вы не можете прикреплять файлы к сообщениям
Вы не можете скачивать файлы
Наши партнеры: интернет магазин Ивановского трикотажа textilla.ru