Важное объявление!
У Нас Все раздачи мультитрекерные, при нуле пиров в релизах, можете смело вставать на закачку!
 
Автор Сообщение

mihis

[Профиль] [ЛС]

Отверженные / Les Miserables«Борьба. Мечта. Надежда. Любовь.»Год выпуска: 2012
Страна: Великобритания, Universal Pictures, Relativity Media, Working Title Films, Cameron Mackintosh
Жанр: Драма, мюзикл, мелодрама, экранизация
Продолжительность: 02:31:21
Перевод: Профессиональный (полное дублирование) Лицензия
Субтитры:Русский (форсированные, полные), английский, болгарский, чешский, греческий, венгерский, польский, эстонский, латышский, литовский
Режиссер: Том Хупер
В ролях: Хью Джекман, Расселл Кроу, Энн Хэтэуэй, Аманда Сайфред, Эдди Редмэйн, Хелена Бонем Картер, Саша Барон Коэн, Аарон Твейт, Саманта Баркс, Дэниэл Хаттлстоун, Изабелль Аллен, Наталья Энджел Уоллес, Кевин Корнуолл, Джозеф Алтин
Описание: Действие развивается в начале XIX столетия. Беглый каторжник Жан Вальжан, приговоренный к тюремному заключению, вынужден долгие годы скрываться от жестокого правосудия. Инспектор парижской полиции Жавер считает его поимку делом всей своей жизни. После смерти Фантины — женщины, за судьбу которой Жан Вальжан считал себя в ответе, — единственным близким ему человеком остается ее дочь Козетта. Ради счастья девушки Жан готов на все.

Качество: DVD5
Формат: MPEG
Видео кодек: MPEG2
Аудио кодек: AC3
Видео: 720x576@1024x576 (PAL 16:9), ~4000 kbps, 25 fps
Аудио: AC3 5.1, 384 kbps

MediaInfo

Полное имя : D:Отверженные-Les.Miserables.(2012).DVD5VIDEO_TSVTS_01_2.VOB
Формат : MPEG-PS
Размер файла : 1024 Мбайт
Продолжительность : 31 м.
Режим общего битрейта : Переменный
Общий поток : 4521 Кбит/сек
Видео
Идентификатор : 224 (0xE0)
Формат : MPEG Video
Версия формата : Version 2
Профиль формата : Main@Main
Параметр BVOP формата : Да
Параметр матрицы формата : Выборочная
Продолжительность : 31 м.
Вид битрейта : Переменный
Битрейт : 4047 Кбит/сек
Максимальный битрейт : 8512 Кбит/сек
Ширина : 720 пикселей
Высота : 576 пикселей
Соотношение сторон : 16:9
Частота кадров : 25,000 кадров/сек
Стандарт вещания : PAL
Цветовое пространство : YUV
Субдискретизация насыщенности : 4:2:0
Битовая глубина : 8 бит
Тип развёртки : Чересстрочная
Порядок развёртки : Верхнее поле первое
Метод сжатия : С потерями
Бит/(Пиксели*Кадры) : 0.390
Размер потока : 917 Мбайт (90%)
Аудио
Идентификатор : 189 (0xBD)-129 (0x81)
Формат : AC-3
Формат/Информация : Audio Coding 3
Расширение режима : CM (complete main)
Параметр Endianness формата : Big
Режим смешивания : DVD-Video
Продолжительность : 31 м.
Вид битрейта : Постоянный
Битрейт : 384 Кбит/сек
Каналы : 6 каналов
Расположение каналов : Front: L C R, Side: L R, LFE
Частота : 48,0 КГц
Битовая глубина : 16 бит
Метод сжатия : С потерями
Задержка видео : -456 мс.
Размер потока : 87,0 Мбайт (8%)
Текст #1
Идентификатор : 189 (0xBD)-32 (0x20)
Формат : RLE
Формат/Информация : Run-length encoding
Режим смешивания : DVD-Video
Продолжительность : 31 м.
Задержка видео : 1 с. 120 мс.
Текст #2
Идентификатор : 189 (0xBD)-33 (0x21)
Формат : RLE
Формат/Информация : Run-length encoding
Режим смешивания : DVD-Video
Задержка видео : 1 с. 440 мс.
Текст #3
Идентификатор : 189 (0xBD)-34 (0x22)
Формат : RLE
Формат/Информация : Run-length encoding
Режим смешивания : DVD-Video
Задержка видео : 3 с. 400 мс.
Текст #4
Идентификатор : 189 (0xBD)-35 (0x23)
Формат : RLE
Формат/Информация : Run-length encoding
Режим смешивания : DVD-Video
Задержка видео : 1 с. 480 мс.
Текст #5
Идентификатор : 189 (0xBD)-36 (0x24)
Формат : RLE
Формат/Информация : Run-length encoding
Режим смешивания : DVD-Video
Задержка видео : 1 с. 280 мс.
Текст #6
Идентификатор : 189 (0xBD)-37 (0x25)
Формат : RLE
Формат/Информация : Run-length encoding
Режим смешивания : DVD-Video
Задержка видео : 1 с. 120 мс.
Текст #7
Идентификатор : 189 (0xBD)-38 (0x26)
Формат : RLE
Формат/Информация : Run-length encoding
Режим смешивания : DVD-Video
Задержка видео : 1 с. 440 мс.
Текст #8
Идентификатор : 189 (0xBD)-39 (0x27)
Формат : RLE
Формат/Информация : Run-length encoding
Режим смешивания : DVD-Video
Задержка видео : 1 с. 240 мс.
Текст #9
Идентификатор : 189 (0xBD)-40 (0x28)
Формат : RLE
Формат/Информация : Run-length encoding
Режим смешивания : DVD-Video
Задержка видео : 1 с. 280 мс.
Текст #10
Идентификатор : 189 (0xBD)-41 (0x29)
Формат : RLE
Формат/Информация : Run-length encoding
Режим смешивания : DVD-Video
Задержка видео : 1 с. 240 мс.
Текст #11
Идентификатор : 189 (0xBD)-42 (0x2A)
Формат : RLE
Формат/Информация : Run-length encoding
Режим смешивания : DVD-Video
Задержка видео : 1 с. 440 мс.

Награды

Оскар, 2013 год
Победитель (3):
Лучшая женская роль второго плана (Энн Хэтэуэй)
Лучший звук
Лучший грим и прически
Номинации (5):
Лучший фильм
Лучшая мужская роль (Хью Джекман)
Лучшая работа художника-постановщика
Лучшие костюмы
Лучшая песня — «Suddenly»
Золотой глобус, 2013 год
Победитель (3):
Лучший фильм (комедия или мюзикл)
Лучшая мужская роль (комедия или мюзикл) (Хью Джекман)
Лучшая женская роль второго плана (Энн Хэтэуэй)
Номинации (1):
Лучшая песня — «Suddenly»
Премия канала «MTV», 2013 год
Номинации (3):
Лучшая женская роль (Энн Хэтэуэй)
Прорыв года (Эдди Редмэйн)
Лучший музыкальный момент
Британская академия, 2013 год
Победитель (4):
Лучшая женская роль второго плана (Энн Хэтэуэй)
Лучший звук
Лучший грим/прически
Лучшая работа художника-постановщика (Анна Линч-Робинсон, Ив Стюарт)
Номинации (5):
Лучший фильм
Лучшая мужская роль (Хью Джекман)
Лучшая работа оператора
Лучшие костюмы
Лучший британский фильм
Сатурн, 2013 год
Номинации (6):
Лучший актер (Хью Джекман)
Лучший молодой актер/актриса (Дэниэл Хаттлстоун)
Лучшая актриса второго плана (Энн Хэтэуэй)
Лучшие костюмы
Лучшие декорации
Лучший приключенческий фильм или боевик
Премия Гильдии актеров, 2013 год
Победитель (1):
Лучшая женская роль второго плана (Энн Хэтэуэй)
Номинации (3):
Лучший актерский состав
Лучшая мужская роль (Хью Джекман)
Лучший каскадерский состав
Источник
 
Показать сообщения:    

Текущее время: Сегодня 11:07

Часовой пояс: GMT



Вы не можете начинать темы
Вы не можете отвечать на сообщения
Вы не можете редактировать свои сообщения
Вы не можете удалять свои сообщения
Вы не можете голосовать в опросах
Вы не можете прикреплять файлы к сообщениям
Вы не можете скачивать файлы