Ивановский Торрент трекер
Яндекс.Погода
Статистика раздачи
Размер:  19.73 GB   |    Зарегистрирован:  3 года 5 месяцев   |    Скачан:  0 раз

Полного источника не было: Никогда

 
     
 
 
 

[Цитировать]
HUNTER

Отбой / Кадеты / Taps
Страна: США
Студия: 20th Century Fox Film Corporation
Жанр: драма
Год выпуска: 1981
Продолжительность: 02:06:23
Перевод: Профессиональный (многоголосый закадровый) R5
Перевод 2: Авторский (одноголосый закадровый) Г. Либергал
Cубтитры: русские, английские
Оригинальная аудиодорожка: английский
Режиссер: Харольд Беккер / Harold Becker
В ролях: Тимоти Хаттон, Шон Пенн, Том Круз, Ронни Кокс, Джордж К. Скотт, Брендан Уорд, Эван Хэндлер, Джон П. Навин мл., Билли Ван Зандт, Джанкарло Эспозито, Дональд Киммел, Уэйн Типпит, Джесс Осуна
Описание: Фанатично преданные своему военному училищу курсанты вдруг узнают, что их школу продают застройщикам. Они отказываются признать поражение и решают отстоять свою академию и собственную честь. Но юным храбрецам предстоит осознать, что даже самые мужественные решения могут иметь неожиданные, а порой и роковые последствия!

Sample
Тип релиза: BDRip 1080p - Wiki
Контейнер: MKV
Видео: MPEG4 AVC Video, H264, 16:9, 1.85:1, 1920x1040, 23,976 fps, 19.9 Mbps
Аудио: Russian (AC3, 4 ch, 448 kbps, 16 bits, 48.0 KHz) - MVO R5(ОРТ)
Аудио 2: Russian (AC3, 4 ch, 448 kbps, 16 bits, 48.0 KHz) - AVO Либергал
Аудио 3: English (DTS, 6 ch, 1509 kbps, 24 bits, 48.0 KHz) - оригинал
Формат субтитров: softsub (SRT)

MediaInfo
General
Unique ID : 234622963346989562151429203780633265752 (0xB082BD34065162E28AC0AA5E45228658)
Complete name : E:\1\Отбой 1981 BDRip 1080p -WiKi.mkv
Format : Matroska
Format version : Version 4 / Version 2
File size : 19.7 GiB
Duration : 2h 6mn
Overall bit rate : 22.4 Mbps
Encoded date : UTC 2014-06-18 11:15:53
Writing application : mkvmerge v6.1.0 ('Old Devil') built on Mar 2 2013 14:32:37
Writing library : libebml v1.3.0 + libmatroska v1.4.0
Video
ID : 1
Format : AVC
Format/Info : Advanced Video Codec
Format profile : High@L4.1
Format settings, CABAC : Yes
Format settings, ReFrames : 4 frames
Codec ID : V_MPEG4/ISO/AVC
Duration : 2h 6mn
Bit rate : 19.9 Mbps
Width : 1 920 pixels
Height : 1 040 pixels
Display aspect ratio : 1.85:1
Frame rate mode : Constant
Frame rate : 23.976 fps
Color space : YUV
Chroma subsampling : 4:2:0
Bit depth : 8 bits
Scan type : Progressive
Bits/(Pixel*Frame) : 0.417
Stream size : 17.2 GiB (87%)
Writing library : x264 core 124 r2197+666+28 3970b70 tMod+MixAQ [8-bit@4:2:0 X86_64]
Encoding settings : cabac=1 / ref=4 / deblock=1:-3:-3 / analyse=0x3:0x133 / me=umh / subme=11 / psy=1 / fade_compensate=0.00 / psy_rd=1.05:0.15 / mixed_ref=1 / me_range=64 / chroma_me=1 / trellis=2 / 8x8dct=1 / cqm=0 / deadzone=21,11 / fast_pskip=0 / chroma_qp_offset=-3 / threads=12 / sliced_threads=0 / nr=0 / decimate=0 / interlaced=0 / bluray_compat=0 / constrained_intra=0 / fgo=0 / bframes=10 / b_pyramid=2 / b_adapt=2 / b_bias=0 / direct=3 / weightb=1 / open_gop=0 / weightp=2 / keyint=250 / keyint_min=23 / scenecut=40 / intra_refresh=0 / rc_lookahead=150 / rc=2pass / mbtree=1 / bitrate=19948 / ratetol=1.0 / qcomp=0.70 / qpmin=0 / qpmax=69 / qpstep=4 / cplxblur=20.0 / qblur=0.5 / vbv_maxrate=50000 / vbv_bufsize=50000 / nal_hrd=none / ip_ratio=1.40 / aq=1 / aq-strength=0.60 / aq-sensitivity=10.00 / aq-ifactor=1.00 / aq-pfactor=1.00 / aq-bfactor=1.00 / aq2=0
Default : Yes
Forced : No
Matrix coefficients : BT.709
Audio #1
ID : 2
Format : AC-3
Format/Info : Audio Coding 3
Mode extension : CM (complete main)
Format settings, Endianness : Big
Codec ID : A_AC3
Duration : 2h 6mn
Bit rate mode : Constant
Bit rate : 448 Kbps
Channel count : 4 channels
Channel positions : Front: L C R, LFE
Sampling rate : 48.0 KHz
Bit depth : 16 bits
Compression mode : Lossy
Stream size : 405 MiB (2%)
Title : ОРТ
Language : Russian
Default : Yes
Forced : No
Audio #2
ID : 3
Format : AC-3
Format/Info : Audio Coding 3
Mode extension : CM (complete main)
Format settings, Endianness : Big
Codec ID : A_AC3
Duration : 2h 6mn
Bit rate mode : Constant
Bit rate : 448 Kbps
Channel count : 4 channels
Channel positions : Front: L C R, LFE
Sampling rate : 48.0 KHz
Bit depth : 16 bits
Compression mode : Lossy
Stream size : 405 MiB (2%)
Title : Григорий Либергал
Language : Russian
Default : No
Forced : No
Audio #3
ID : 4
Format : DTS
Format/Info : Digital Theater Systems
Mode : 16
Format settings, Endianness : Big
Codec ID : A_DTS
Duration : 2h 6mn
Bit rate mode : Constant
Bit rate : 1 509 Kbps
Channel count : 6 channels
Channel positions : Front: L C R, Side: L R, LFE
Sampling rate : 48.0 KHz
Bit depth : 24 bits
Compression mode : Lossy
Stream size : 1.33 GiB (7%)
Language : English
Default : No
Forced : No
Text #1
ID : 5
Format : UTF-8
Codec ID : S_TEXT/UTF8
Codec ID/Info : UTF-8 Plain Text
Language : Russian
Default : No
Forced : No
Text #2
ID : 6
Format : UTF-8
Codec ID : S_TEXT/UTF8
Codec ID/Info : UTF-8 Plain Text
Language : English
Default : No
Forced : No
Menu
00:00:00.000 : en:00:00:00.000
00:01:34.720 : en:00:01:34.720
00:06:42.902 : en:00:06:42.902
00:09:20.226 : en:00:09:20.226
00:13:35.440 : en:00:13:35.440
00:15:06.864 : en:00:15:06.864
00:17:48.401 : en:00:17:48.401
00:25:23.897 : en:00:25:23.897
00:32:04.005 : en:00:32:04.005
00:33:17.120 : en:00:33:17.120
00:38:34.270 : en:00:38:34.270
00:40:55.495 : en:00:40:55.495
00:42:45.062 : en:00:42:45.062
00:46:24.198 : en:00:46:24.198
00:48:52.471 : en:00:48:52.471
00:52:24.558 : en:00:52:24.558
00:58:51.194 : en:00:58:51.194
01:01:57.422 : en:01:01:57.422
01:06:01.583 : en:01:06:01.583
01:07:34.717 : en:01:07:34.717
01:11:06.721 : en:01:11:06.721
01:13:29.905 : en:01:13:29.905
01:18:33.709 : en:01:18:33.709
01:22:25.149 : en:01:22:25.149
01:27:09.724 : en:01:27:09.724
01:29:14.641 : en:01:29:14.641
01:33:05.580 : en:01:33:05.580
01:35:47.367 : en:01:35:47.367
01:36:41.921 : en:01:36:41.921
01:39:48.065 : en:01:39:48.065
01:44:31.390 : en:01:44:31.390
01:47:25.773 : en:01:47:25.773
01:48:38.262 : en:01:48:38.262
01:56:36.323 : en:01:56:36.323
02:00:30.682 : en:02:00:30.682
02:03:48.212 : en:02:03:48.212
Скриншоты
[iv-torrents.ru].t29040.torrent
Торрент: Зарегистрирован [ 2014-07-03 13:52 ] · 83A1323BA40FC41CD718AC3C9475EEB55E96419A

Скачать .torrent

Скачать

99 KB

Статус: проверено
Скачан: 0 раз
Размер: 19.73 GB
terms.php
Похожие темы


Показать сообщения:    

Текущее время: 15-Дек 18:08

Часовой пояс: UTC ± 0


Вы не можете начинать темы
Вы не можете отвечать на сообщения
Вы не можете редактировать свои сообщения
Вы не можете удалять свои сообщения
Вы не можете голосовать в опросах
Вы не можете прикреплять файлы к сообщениям
Вы можете скачивать файлы

!ВНИМАНИЕ!
Сайт не предоставляет электронные версии произведений, а занимается лишь коллекционированием и каталогизацией ссылок, присылаемых и публикуемых на форуме нашими читателями. Если вы являетесь правообладателем какого-либо представленного материала и не желаете, чтобы ссылка на него находилась в нашем каталоге, свяжитесь с нами, и мы незамедлительно удалим ее. Файлы для обмена на трекере предоставлены пользователями сайта, и администрация не несет ответственности за их содержание. Просьба не заливать файлы, защищенные авторскими правами, а также файлы нелегального содержания!