Важное объявление!
У Нас Все раздачи мультитрекерные, при нуле пиров в релизах, можете смело вставать на закачку!
Статистика раздачи
Размер:     |    Зарегистрирован:     |    Скачан:     |   
Нет
 
     
 
 
Автор Сообщение

HUNTER

Стаж:
5 лет
Сообщений:
67920

Репутация: 101

[+] [-]
Вне форума [Профиль] [ЛС]

Остров / The Island
Страна: США
Жанр: Боевик, триллер, драма, приключения
Год выпуска: 1980
Продолжительность: 01:54:12
Перевод 1: Профессиональный (многоголосый закадровый) Настроение Видео
Перевод 2: Профессиональный (многоголосый закадровый) Первый канал
Cубтитры: английские
Оригинальная аудиодорожка: английский
Режиссер: Майкл Ритчи /Michael Ritchie
В ролях: Майкл Кейн, Дэвид Уорнер, Анджела Панч МакГрегор, Фрэнк Миддлмэсс, Дон Хендерсон, Дадли Саттон, Колин Дживонс, Закес Мокае, Брэд Салливан, Джеффри Фрэнк
Описание: Репортер Блэйр Мэйнард упрашивает своего издателя отправить его в окрестности Флориды, где таинственным образом исчезают суда. Но кто бы мог подумать, что обычное журналистское расследование обернется самым сенсационным открытием века?! Выясняется, что причиной страшных исчезновений яхт оказывается не пресловутый Бермудский Треугольник, а… настоящие пираты! Карибский бассейн всегда был знаменитой «пиратской вотчиной», но представить себе, что где-то на бескрайних просторах моряобитает община пиратов, понятия не имеющая, что на дворе двадцатое столетие, было просто невозможно! Но, к сожалению, это оказалось невероятной правдой. Лодка журналиста была взята «на абордаж», а ее пассажиры, Блэйр и его сын Джастин, стали добычей букканиров из семнадцатого века! Теперь посмотрим: сможет ли изнеженный цивилизацией газетчик противостоять свирепым пиратам?!
Сэмпл: http://sendfile.su/965652
Тип релиза: BDRemux 1080p
Контейнер: MKV
Видео: AVC 1920 x 1080 (16:9) 23,976 fps, 19999 kbps
Аудио 1: Russian AC3 / 5.1 / 48 kHz / 448 kbps (Настроение Видео)
Аудио 2: Russian AC3 / 2.0 / 48 kHz / 192 kbps ( Первый канал)
Аудио 3: English DTS-HD Audio / 5.1 / 48 kHz / 3361 kbps / 24-bit (DTS Core: 5.1 / 48 kHz / 1509 kbps / 24-bit)

MediaInfo

Общее
Уникальный идентификатор : 192404735617620737292969414660081468548 (0x90BFCDDE87AEDCEF955126B2F2E64484)
Полное имя : D:\The Island\The.Island.1980.BDRemux.1080p..mkv
Формат : Matroska
Версия формата : Version 4 / Version 2
Размер файла : 19,2 Гбайт
Продолжительность : 1 ч. 54 м.
Режим общего битрейта : Переменный
Общий поток : 24,0 Мбит/сек
Название фильма : The Island 1980 1080p Blu-ray Remux AVC DTS-HD MA 5.1 - KRaLiMaRKo
Дата кодирования : UTC 2014-04-08 13:35:14
Программа кодирования : mkvmerge v6.3.0 ('You can't stop me!') built on Jun 28 2013 20:09:41
Библиотека кодирования : libebml v1.3.0 + libmatroska v1.4.0
Видео
Идентификатор : 1
Формат : AVC
Формат/Информация : Advanced Video Codec
Профиль формата : High@L4.1
Параметр CABAC формата : Да
Параметр ReFrames формата : 3 кадра
Параметр GOP формата : M=3, N=12
Идентификатор кодека : V_MPEG4/ISO/AVC
Продолжительность : 1 ч. 54 м.
Вид битрейта : Переменный
Максимальный битрейт : 35,0 Мбит/сек
Ширина : 1920 пикселей
Высота : 1080 пикселей
Соотношение сторон : 16:9
Режим частоты кадров : Постоянный
Частота кадров : 23,976 кадра/сек
Стандарт вещания : NTSC
Цветовое пространство : YUV
Субдискретизация насыщенности : 4:2:0
Битовая глубина : 8 бит
Тип развёртки : Прогрессивная
Заголовок : MPEG-4 AVC Video 20000 kbps 1080p / 23.976 fps / 16:9 / High Profile 4.1
Язык : English
Default : Да
Forced : Нет
Основные цвета : BT.709
Характеристики трансфера : BT.709
Коэффициенты матрицы : BT.709
Аудио #1
Идентификатор : 2
Формат : AC-3
Формат/Информация : Audio Coding 3
Расширение режима : CM (complete main)
Параметр Endianness формата : Big
Идентификатор кодека : A_AC3
Продолжительность : 1 ч. 54 м.
Вид битрейта : Постоянный
Битрейт : 448 Кбит/сек
Каналы : 6 каналов
Расположение каналов : Front: L C R, Side: L R, LFE
Частота : 48,0 КГц
Битовая глубина : 16 бит
Метод сжатия : С потерями
Размер потока : 366 Мбайт (2%)
Заголовок : AC3, 3/2 + LFE ch, 448Kbps - Настроение Видео
Язык : Russian
Default : Да
Forced : Нет
Аудио #2
Идентификатор : 3
Формат : AC-3
Формат/Информация : Audio Coding 3
Расширение режима : CM (complete main)
Параметр Endianness формата : Big
Идентификатор кодека : A_AC3
Продолжительность : 1 ч. 54 м.
Вид битрейта : Постоянный
Битрейт : 192 Кбит/сек
Каналы : 2 канала
Расположение каналов : Front: L R
Частота : 48,0 КГц
Битовая глубина : 16 бит
Метод сжатия : С потерями
Размер потока : 157 Мбайт (1%)
Заголовок : AC3, 2/0 ch, 192Kbps - Первый канал
Язык : Russian
Default : Нет
Forced : Нет
Аудио #3
Идентификатор : 4
Формат : DTS
Формат/Информация : Theater Systems
Профиль формата : MA / Core
Режим : 16
Параметр Endianness формата : Big
Идентификатор кодека : A_DTS
Продолжительность : 1 ч. 54 м.
Вид битрейта : Переменный
Битрейт : Неизвестно / 1509 Кбит/сек
Каналы : 6 каналов
Расположение каналов : Front: L C R, Side: L R, LFE
Частота : 48,0 КГц
Битовая глубина : 24 бит
Метод сжатия : Без потерь / Lossy
Заголовок : DTS-HD MA, 5.1, 3361 kbps / 48 kHz / 3361 kbps / 24-bit (DTS Core: 5.1 / 48 kHz / 1509 kbps / 24-bit)
Язык : English
Default : Нет
Forced : Нет
Текст
Идентификатор : 5
Формат : UTF-8
Идентификатор кодека : S_TEXT/UTF8
Идентификатор кодека/Информация : UTF-8 Plain Text
Язык : English
Default : Нет
Forced : Нет
Меню
00:00:00.000 : en:00:00:00.000
00:10:00.600 : en:00:10:00.600
00:20:01.200 : en:00:20:01.200
00:30:01.800 : en:00:30:01.800
00:40:02.400 : en:00:40:02.400
00:50:03.000 : en:00:50:03.000
01:00:03.600 : en:01:00:03.600
01:10:04.200 : en:01:10:04.200
01:20:04.800 : en:01:20:04.800
01:30:05.400 : en:01:30:05.400
01:40:06.000 : en:01:40:06.000
01:50:06.600 : en:01:50:06.600

Скриншоты


_________________
Показать сообщения:    

Текущее время: Сегодня 16:51

Часовой пояс: GMT



Вы не можете начинать темы
Вы не можете отвечать на сообщения
Вы не можете редактировать свои сообщения
Вы не можете удалять свои сообщения
Вы не можете голосовать в опросах
Вы не можете прикреплять файлы к сообщениям
Вы не можете скачивать файлы