Важное объявление!
У Нас Все раздачи мультитрекерные, при нуле пиров в релизах, можете смело вставать на закачку!
 
Автор Сообщение

HUNTER

Стаж:
4 года 8 месяцев
Сообщений:
61987

Репутация: 101

[+] [-]
Вне форума [Профиль] [ЛС]

Остров сокровищ-
Страна: СССР, Киевнаучфильм
Жанр: мультфильм, приключения
Продолжительность: 00:47:31 + 00:59:12
Год выпуска: 1986-1988
Русские субтитры: есть-Режиссер: Давид Черкасский
Роли озвучивали: Владимир Заднепровский, Евгений Паперный, Армен Джигарханян, Юрий Яковлев, Валерий Бессараб, Борис Вознюк, Георгий Кишко, Валерий Чигляев, Виктор Андриенко- -Описание: Мультипликационный фильм по мотивам одноименного романа английского писателя Р.Л.Стивенсона.
Современная версия старой истории о поиске сокровищ легендарного пирата Флинта. Славный мальчик Джимми Хокинс, отважный капитан Смоллетт, трусливый сквайр Трелони, коварные пираты и обаятельнейший доктор Ливси - эти герои не оставят вас равнодушными.
Фильм снят в манере совмещенных игровых эпизодов с рисованной мультипликацией.
Шхуна "Испаньола" бороздит морские просторы в поисках острова, на котором спрятаны легендарные сокровища капитана пиратов Флинта. На корабле зреет заговор. Разбойники во главе с одноногим Джоном Сильвером, кажется, близки к цели...-Доп. информация: Без реставрации-Релиз: -Семпл: http://onemove.ru/37838/-Качество: DVDRip [Исходный DVD5]
Формат: AVI
Видео: 688x528 (1.30:1), 25 fps, XviD MPEG-4 ~2399 kbps avg, 0.26 bit/pixel
Аудио: Русский, 48 kHz, AC3 Dolby Digital, 2/0 (L,R) ch, ~224 kbps
Субтитры: deutsch, english, russian (SubRip format)

Скриншоты (1 серия)

Скриншоты (2 серия)

MediaInfo

1 серия

GeneralComplete name : E:\OSTROV_SOKROVISH\2GB\Ostrov_Sokrovish_part1.aviFormat : AVIFormat/Info : Audio Video InterleaveFile size : 895 MiBDuration : 47mn 31sOverall bit rate : 2 632 KbpsWriting application : VirtualDubMod 1.5.10.2 (build 2542/release)Writing library : VirtualDubMod build 2542/release
VideoID : 0Format : MPEG-4 VisualFormat profile : Advanced Simple@L5Format settings, BVOP : YesFormat settings, QPel : NoFormat settings, GMC : No warppointsFormat settings, Matrix : CustomMuxing mode : Packed bitstreamCodec ID : DX50Codec ID/Hint : DivX 5Duration : 47mn 31sBit rate : 2 398 KbpsWidth : 688 pixelsHeight : 528 pixelsDisplay aspect ratio : 4:3Frame rate : 25.000 fpsColor space : YUVChroma subsampling : 4:2:0Bit depth : 8 bitsScan type : ProgressiveBits/(Pixel*Frame) : 0.264Stream size : 815 MiB (91%)Writing library : XviD 1.2.1 (UTC 2008-12-04)
AudioID : 1Format : AC-3Format/Info : Audio Coding 3Mode extension : CM (complete main)Codec ID : 2000Duration : 47mn 31sBit rate mode : ConstantBit rate : 224 KbpsChannel(s) : 2 channelsChannel positions : Front: L RSampling rate : 48.0 KHzBit depth : 16 bitsStream size : 76.1 MiB (9%)Alignment : Split accross interleavesInterleave, duration : 40 ms (1.00 video frame)Interleave, preload duration : 500 ms

2 серия

GeneralComplete name : E:\OSTROV_SOKROVISH\2GB\Ostrov_Sokrovish_part2.aviFormat : AVIFormat/Info : Audio Video InterleaveFile size : 1.09 GiBDuration : 59mn 12sOverall bit rate : 2 634 KbpsWriting application : VirtualDubMod 1.5.10.2 (build 2542/release)Writing library : VirtualDubMod build 2542/release
VideoID : 0Format : MPEG-4 VisualFormat profile : Advanced Simple@L5Format settings, BVOP : YesFormat settings, QPel : NoFormat settings, GMC : No warppointsFormat settings, Matrix : CustomMuxing mode : Packed bitstreamCodec ID : DX50Codec ID/Hint : DivX 5Duration : 59mn 12sBit rate : 2 400 KbpsWidth : 688 pixelsHeight : 528 pixelsDisplay aspect ratio : 4:3Frame rate : 25.000 fpsColor space : YUVChroma subsampling : 4:2:0Bit depth : 8 bitsScan type : ProgressiveBits/(Pixel*Frame) : 0.264Stream size : 1 016 MiB (91%)Writing library : XviD 1.2.1 (UTC 2008-12-04)
AudioID : 1Format : AC-3Format/Info : Audio Coding 3Mode extension : CM (complete main)Codec ID : 2000Duration : 59mn 12sBit rate mode : ConstantBit rate : 224 KbpsChannel(s) : 2 channelsChannel positions : Front: L RSampling rate : 48.0 KHzBit depth : 16 bitsStream size : 94.9 MiB (9%)Alignment : Split accross interleavesInterleave, duration : 40 ms (1.00 video frame)Interleave, preload duration : 500 ms

_________________
Показать сообщения:    

Текущее время: Сегодня 10:45

Часовой пояс: GMT



Вы не можете начинать темы
Вы не можете отвечать на сообщения
Вы не можете редактировать свои сообщения
Вы не можете удалять свои сообщения
Вы не можете голосовать в опросах
Вы не можете прикреплять файлы к сообщениям
Вы не можете скачивать файлы
Наши партнеры: интернет магазин Ивановского трикотажа textilla.ru