Ивановский Торрент трекер
Яндекс.Погода
 

[Цитировать]
димитри37

Остров смерти / Black Rock
Название: Остров смерти
Оригинальное название: Black Rock
Страна: США
Жанр: ужасы, триллер
Год выпуска: 2012
Продолжительность: 01:19:53
Перевод: Профессиональный (двухголосый закадровый)
Cубтитры: нет
Режиссер: Кэтрин Аселтон / Katie Aselton
В ролях: Кэтрин Аселтон, Лэйк Белл, Кейт Босворт, Уилл Бовье, Джей Полсон, Анслем Ричардсон, Карл К. Аселтон III, Др. Карл Аселтон, Генри Барронс, Джон Дэвис
Описание: Три подруги детства решают устроить пикник на удаленном острове. Однако незапланированная встреча с агрессивно настроенными ветеранами иракской войны превращает отдых в сущий кошмар.
Качество видео: WEB-DLRip
Формат видео: AVI
Видео: 640x344 (1.86:1), 23.976 fps, XviD build 50 ~1087 kbps avg, 0.21 bit/pixel
Аудио: 48 kHz, MPEG Layer 3, 2 ch, ~128.00 kbps avg
Видео кодек: XviD build 50
Аудио кодек: MPEG Layer 3,2 ch

MediaInfo

General
Complete name : C:\Black.rock.2012.P.WEBDLRip.700MB.avi
Format : AVI
Format/Info : Audio Video Interleave
File size : 700 MiB
Duration : 1h 19mn
Overall bit rate : 1 225 Kbps
Writing application : VirtualDubMod 1.5.10.3 | www.virtualdub-fr.org || (build 2550/release)
Writing library : VirtualDubMod build 2550/release
Video
ID : 0
Format : MPEG-4 Visual
Format profile : Advanced Simple@L5
Format settings, BVOP : 2
Format settings, QPel : No
Format settings, GMC : No warppoints
Format settings, Matrix : Default (H.263)
Codec ID : XVID
Codec ID/Hint : XviD
Duration : 1h 19mn
Bit rate : 1 088 Kbps
Width : 640 pixels
Height : 344 pixels
Display aspect ratio : 1.85:1
Frame rate : 23.976 fps
Color space : YUV
Chroma subsampling : 4:2:0
Bit depth : 8 bits
Scan type : Progressive
Compression mode : Lossy
Bits/(Pixel*Frame) : 0.206
Stream size : 621 MiB (89%)
Writing library : XviD 1.2.1 (UTC 2008-12-04)
Audio
ID : 1
Format : MPEG Audio
Format version : Version 1
Format profile : Layer 3
Codec ID : 55
Codec ID/Hint : MP3
Duration : 1h 19mn
Bit rate mode : Constant
Bit rate : 128 Kbps
Channel(s) : 2 channels
Sampling rate : 48.0 KHz
Compression mode : Lossy
Stream size : 73.1 MiB (10%)
Alignment : Aligned on interleaves
Interleave, duration : 42 ms (1.00 video frame)
Interleave, preload duration : 504 ms
Writing library : LAME3.99r
Encoding settings : -m s -V 4 -q 2 -lowpass 17 -b 128

Скриншоты

Скриншот c названием фильма

Показать сообщения:    

Текущее время: 20-Сен 10:17

Часовой пояс: UTC - 1


Вы не можете начинать темы
Вы не можете отвечать на сообщения
Вы не можете редактировать свои сообщения
Вы не можете удалять свои сообщения
Вы не можете голосовать в опросах
Вы не можете прикреплять файлы к сообщениям
Вы не можете скачивать файлы

!ВНИМАНИЕ!
Сайт не предоставляет электронные версии произведений, а занимается лишь коллекционированием и каталогизацией ссылок, присылаемых и публикуемых на форуме нашими читателями. Если вы являетесь правообладателем какого-либо представленного материала и не желаете, чтобы ссылка на него находилась в нашем каталоге, свяжитесь с нами, и мы незамедлительно удалим ее. Файлы для обмена на трекере предоставлены пользователями сайта, и администрация не несет ответственности за их содержание. Просьба не заливать файлы, защищенные авторскими правами, а также файлы нелегального содержания!