Остров потерянных душ / Island of Lost Souls (Эрл С. Кентон / Erle C. Kenton) [1932 г., США, ужасы, приключения, мелодрама, BDRemux 1080p] [Criterion#586] VO (den904) + Original Eng + Sub (Rus, Eng) :: Ивановский Торрент трекер
Важное объявление!
У Нас Все раздачи мультитрекерные, при нуле пиров в релизах, можете смело вставать на закачку!
Статистика раздачи
Размер:     |    Зарегистрирован:     |    Скачан:     |   
Нет
 
     
 
 
Автор Сообщение

HUNTER

Стаж:
4 года 11 месяцев
Сообщений:
66054

Репутация: 101

[+] [-]
Вне форума [Профиль] [ЛС]

Остров потерянных душ / Island of Lost Souls-
Год выпуска: 1932
Страна: США
Жанр: ужасы, приключения, фантастика, мелодрама
Продолжительность: 01:10:49
Перевод: Одноголосый закадровый — den904 (по переводу catbomb)
Оригинальная аудиодорожка: Английская
Cубтитры: Русские (catbomb), английские (полные, для слабослышащих)-Режиссер: Эрл С. Кентон / Erle C. Kenton
В ролях: Чарльз Лотон, Ричард Арлен, Лейла Хайамс, Бела Лугоши, Кэтлин Бурк, Артур Хол, Стэнли Филдс, Пол Херст, Ганс Стейнке, Тецу Комай-Описание:
Малоизвестная в широких кругах экранизация известного романа Герберта Уэллса "Остров доктора Моро".
Главной целью своих опытов Моро ставит изучить до конца пластичность живых организмов, поэтому вот уже десять лет находясь на острове он пытается создать из зверя человека. Создано уже около 60 зверолюдей, начиная от самых маленьких и заканчивая монстрами, чему хочет препятствовать и спасти несчастных Эдвард Паркер, волей случая оказавшийся на острове.-За русскую дорожку, субтитры спасибо kosmoaelita и videodemons.
| IMDb | Сэмпл-Качество: BDRemux 1080p (Island of Lost Souls 1932 1080p CC Blu-ray AVC LPCM 1.0)
Контейнер: MKV
Видео: AVC, 1920x1080 (1.33:1), 23.976 fps, 35354 kbps
Аудио 1: Русский AС3, 2.0, 48 kHz, 384 kbps
Аудио 2: Английский DTS-HD MA 1.0, 48 kHz, 726 kbps, 24-bit (DTS Core: 1.0, 48 kHz, 384 kbps, 24-bit)
Аудио 3: Английский AС3, 1.0, 48 kHz, 192 kbps — Комментарии
Формат субтитров: softsub (SRT)

Скриншоты


MI

General
Unique ID : 228973960424612000143449268710069470870 (0xAC42C7DB14E345658F355884953F8696)
Complete name : Island.of.Lost.Souls.1932.CC.1080p.Remux.mkv
Format : Matroska
Format version : Version 2
File size : 18.1 GiB
Duration : 1h 10mn
Overall bit rate mode : Variable
Overall bit rate : 36.7 Mbps
Movie name : Island of Lost Souls / Остров потерянных душ (1932) – RuTracker
Encoded date : UTC 2014-09-24 19:20:26
Writing application : mkvmerge v7.0.0 ('Where We Going') 64bit built on Jun 9 2014 15:16:27
Writing library : libebml v1.3.0 + libmatroska v1.4.1
Attachment : Yes
Video
ID : 1
Format : AVC
Format/Info : Advanced Video Codec
Format profile : High@L4.1
Format settings, CABAC : Yes
Format settings, ReFrames : 4 frames
Codec ID : V_MPEG4/ISO/AVC
Duration : 1h 10mn
Bit rate mode : Variable
Maximum bit rate : 37.0 Mbps
Width : 1 920 pixels
Height : 1 080 pixels
Display aspect ratio : 16:9
Frame rate mode : Constant
Frame rate : 23.976 fps
Color space : YUV
Chroma subsampling : 4:2:0
Bit depth : 8 bits
Scan type : Progressive
Title : Island of Lost Souls 1932 1080p CC Blu-ray AVC LPCM 1.0
Language : English
Default : Yes
Forced : No
Audio #1
ID : 2
Format : AC-3
Format/Info : Audio Coding 3
Mode extension : CM (complete main)
Format settings, Endianness : Big
Codec ID : A_AC3
Duration : 1h 10mn
Bit rate mode : Constant
Bit rate : 384 Kbps
Channel(s) : 2 channels
Channel positions : Front: L R
Sampling rate : 48.0 KHz
Bit depth : 16 bits
Compression mode : Lossy
Stream size : 195 MiB (1%)
Title : VO – den904 by kosmoaelita
Language : Russian
Default : Yes
Forced : No
Audio #2
ID : 3
Format : DTS
Format/Info : Digital Theater Systems
Format profile : MA / Core
Mode : 16
Format settings, Endianness : Big
Codec ID : A_DTS
Duration : 1h 10mn
Bit rate mode : Variable
Bit rate : Unknown / 384 Kbps
Channel(s) : 1 channel
Channel positions : Front: C
Sampling rate : 48.0 KHz
Bit depth : 24 bits
Compression mode : Lossless / Lossy
Title : Original
Language : English
Default : No
Forced : No
Audio #3
ID : 4
Format : AC-3
Format/Info : Audio Coding 3
Mode extension : CM (complete main)
Format settings, Endianness : Big
Codec ID : A_AC3
Duration : 1h 10mn
Bit rate mode : Constant
Bit rate : 192 Kbps
Channel(s) : 1 channel
Channel positions : Front: C
Sampling rate : 48.0 KHz
Bit depth : 16 bits
Compression mode : Lossy
Stream size : 97.3 MiB (1%)
Title : Сommentary by film historian Gregory Mank
Language : English
Default : No
Forced : No
Text #1
ID : 5
Format : UTF-8
Codec ID : S_TEXT/UTF8
Codec ID/Info : UTF-8 Plain Text
Title : catbomb
Language : Russian
Default : No
Forced : No
Text #2
ID : 6
Format : UTF-8
Codec ID : S_TEXT/UTF8
Codec ID/Info : UTF-8 Plain Text
Title : full
Language : English
Default : No
Forced : No
Text #3
ID : 7
Format : UTF-8
Codec ID : S_TEXT/UTF8
Codec ID/Info : UTF-8 Plain Text
Title : SDH
Language : English
Default : No
Forced : No
Menu
00:00:00.000 : en:01. The Rescue
00:06:53.747 : en:02. The SS Covena
00:13:20.299 : en:03. The Doctor's Boat
00:15:34.100 : en:04. The Island
00:18:35.906 : en:05. The Panther Woman
00:24:07.321 : en:06. The House of Pain
00:26:22.790 : en:07. The Sayer of the Law
00:29:58.630 : en:08. The Doctor Explains
00:35:52.275 : en:09. The Seduction
00:42:25.168 : en:10. The Beast Flesh Creeps Back
00:46:34.667 : en:11. The Man and the Woman
00:51:46.186 : en:12. The Natives Are Restless
00:59:10.255 : en:13. The Law Is Broken
01:04:13.141 : en:14. The Beasts Rebel

_________________
Показать сообщения:    

Текущее время: Сегодня 03:49

Часовой пояс: GMT



Вы не можете начинать темы
Вы не можете отвечать на сообщения
Вы не можете редактировать свои сообщения
Вы не можете удалять свои сообщения
Вы не можете голосовать в опросах
Вы не можете прикреплять файлы к сообщениям
Вы не можете скачивать файлы