Ивановский Торрент трекер
Яндекс.Погода
 

[Цитировать]
HUNTER

Остров
-
-Страна: Россия
Студия: «Наше Кино», «Каропрокат»
Жанр: драма
Год выпуска: 2006
Продолжительность: 01:54:27--Перевод: Оригинал
Cубтитры: Bosnian, Croatian, English, French, German, Greek, Italian, Romanian, Serbian--Режиссер: Павел Лунгин
В ролях: Пётр Мамонов, Виктор Сухоруков, Дмитрий Дюжев, Юрий Кузнецов, Вика Исакова, Нина Усатова, Ольга Демидова, Алексей Зеленский, Сергей Бурунов и др.--Описание: 1942 год. Небольшой буксир северного флота захватывают немцы. Команда судна – два человека, шкипер Тихон и боцман Толя. Во имя спасения собственной жизни второй соглашается убить первого. Немцы слово держат, оставляя предателя на заброшенном острове. Спустя 34 года на этот остров со всей страны едут люди, прослышавшие о чудотворце отце Анатолии. Он и вправду способен лечить, предсказывать будущее, изгонять бесов. Аскетический образ жизни (спит на угле, мало ест, ходит в обносках) делает о. Анатолия в глазах прихожан и монахов едва ли не святым. Только у самого тяжело на душе, жить, дышать нестерпимо. Убитый товарищ Тихон стоит перед глазами…--imdb | kinopoisk | Семпл--Тип релиза: BDRip 1080p [Ostrov.2006.1080p.BluRay.DTS.x264-HDMaNiAcS]
Контейнер: MKV
Видео: 8432 kb/s, 1920x816, 23.976 fps, V_MPEG4/ISO/AVC
Аудио: DTS, 1510 kb/s, 2.0, 48 kHz, 16 bits
Формат субтитров: softsub [SRT]

MediaInfo

General
Complete name : H:\Ostrov.2006.1080p.BluRay.DTS.x264-HDMaNiAcS\Ostrov.2006.1080p.BluRay.DTS.x264-HDMaNiAcS.mkv
Format : Matroska
File size : 7.95 GiB
Duration : 1h 54mn
Overall bit rate : 9 941 Kbps
Encoded date : UTC 2011-07-28 16:08:20
Writing application : mkvmerge v3.4.0 ('Rapunzel') built on May 15 2010 09:38:20
Writing library : libebml v0.8.0 + libmatroska v0.9.0
Video
ID : 2
Format : AVC
Format/Info : Advanced Video Codec
Format profile : High@L4.1
Format settings, CABAC : Yes
Format settings, ReFrames : 4 frames
Codec ID : V_MPEG4/ISO/AVC
Duration : 1h 54mn
Bit rate : 8 432 Kbps
Width : 1 920 pixels
Height : 816 pixels
Display aspect ratio : 2.35:1
Frame rate : 23.976 fps
Color space : YUV
Chroma subsampling : 4:2:0
Bit depth : 8 bits
Scan type : Progressive
Bits/(Pixel*Frame) : 0.224
Stream size : 6.58 GiB (83%)
Title : Another quality HDMaNiAcS release...
Writing library : x264 core 116 r2019 9cc407d
Encoding settings : cabac=1 / ref=5 / deblock=1:-3:-3 / analyse=0x3:0x133 / me=umh / subme=10 / psy=1 / psy_rd=1.00:0.00 / mixed_ref=1 / me_range=48 / chroma_me=1 / trellis=2 / 8x8dct=1 / cqm=0 / deadzone=21,11 / fast_pskip=0 / chroma_qp_offset=-2 / threads=3 / sliced_threads=0 / nr=0 / decimate=1 / interlaced=0 / bluray_compat=0 / constrained_intra=0 / bframes=3 / b_pyramid=1 / b_adapt=2 / b_bias=0 / direct=3 / weightb=1 / open_gop=0 / weightp=2 / keyint=250 / keyint_min=23 / scenecut=40 / intra_refresh=0 / rc_lookahead=40 / rc=2pass / mbtree=1 / bitrate=8432 / ratetol=1.0 / qcomp=0.60 / qpmin=0 / qpmax=69 / qpstep=4 / cplxblur=20.0 / qblur=0.5 / ip_ratio=1.40 / aq=1:1.00
Language : Russian
Audio
ID : 1
Format : DTS
Format/Info : Digital Theater Systems
Codec ID : A_DTS
Duration : 1h 54mn
Bit rate mode : Constant
Bit rate : 1 510 Kbps
Channel(s) : 2 channels
Channel positions : Front: L R
Sampling rate : 48.0 KHz
Bit depth : 16 bits
Stream size : 1.21 GiB (15%)
Title : Russian DTS 2.0@1510kbps
Language : Russian
Text #1
ID : 3
Format : UTF-8
Codec ID : S_TEXT/UTF8
Codec ID/Info : UTF-8 Plain Text
Language : Bosnian
Text #2
ID : 4
Format : UTF-8
Codec ID : S_TEXT/UTF8
Codec ID/Info : UTF-8 Plain Text
Language : Croatian
Text #3
ID : 5
Format : UTF-8
Codec ID : S_TEXT/UTF8
Codec ID/Info : UTF-8 Plain Text
Language : English
Text #4
ID : 6
Format : UTF-8
Codec ID : S_TEXT/UTF8
Codec ID/Info : UTF-8 Plain Text
Language : French
Text #5
ID : 7
Format : UTF-8
Codec ID : S_TEXT/UTF8
Codec ID/Info : UTF-8 Plain Text
Language : German
Text #6
ID : 8
Format : UTF-8
Codec ID : S_TEXT/UTF8
Codec ID/Info : UTF-8 Plain Text
Language : Greek
Text #7
ID : 9
Format : UTF-8
Codec ID : S_TEXT/UTF8
Codec ID/Info : UTF-8 Plain Text
Language : Italian
Text #8
ID : 10
Format : UTF-8
Codec ID : S_TEXT/UTF8
Codec ID/Info : UTF-8 Plain Text
Language : Romanian
Text #9
ID : 11
Format : UTF-8
Codec ID : S_TEXT/UTF8
Codec ID/Info : UTF-8 Plain Text
Language : Serbian

Скриншоты




Показать сообщения:    

Текущее время: 17-Дек 06:24

Часовой пояс: UTC ± 0


Вы не можете начинать темы
Вы не можете отвечать на сообщения
Вы не можете редактировать свои сообщения
Вы не можете удалять свои сообщения
Вы не можете голосовать в опросах
Вы не можете прикреплять файлы к сообщениям
Вы не можете скачивать файлы

!ВНИМАНИЕ!
Сайт не предоставляет электронные версии произведений, а занимается лишь коллекционированием и каталогизацией ссылок, присылаемых и публикуемых на форуме нашими читателями. Если вы являетесь правообладателем какого-либо представленного материала и не желаете, чтобы ссылка на него находилась в нашем каталоге, свяжитесь с нами, и мы незамедлительно удалим ее. Файлы для обмена на трекере предоставлены пользователями сайта, и администрация не несет ответственности за их содержание. Просьба не заливать файлы, защищенные авторскими правами, а также файлы нелегального содержания!