Важное объявление!
У Нас Все раздачи мультитрекерные, при нуле пиров в релизах, можете смело вставать на закачку!
 
Автор Сообщение

HUNTER

Стаж:
4 года 6 месяцев
Сообщений:
60937

Репутация: 101

[+] [-]
Вне форума [Профиль] [ЛС]

Особое мнение / Minority Report-Год выпуска: 2002
Страна: США
Жанр: Фантастика, боевик, триллер, криминал, детектив
Продолжительность: 02:25:09
Перевод: Профессиональный (Полное дублирование)
Субтитры: | -В ролях: Том Круз, Колин Фаррелл, Макс фон Сюдов, Саманта Мортон, Кэтрин Моррис, Тим Блейк Нельсон, Петер Стормаре, Лоис Смит, Пэтрик Килпэтрик, Стив Харрис
Режиссёр: Стивен Спилберг-Описание: 2054 год. Уже шесть лет существует особый предпреступный отдел. На основе психических технологий разработана экспериментальная программа, с помощью которой работники отдела могут узнать о еще не совершенном убийстве и арестовать подозреваемого еще до совершения им преступления.
Такая система осуждения преступников и предотвращения преступлений получает все большее распространение. Эта система работает идеально, но самое страшное начинается тогда, когда ты сам оказываешься обвиненным в еще не совершенном убийстве.
Однажды руководитель предпреступного отдела Джон Андертон сам оказывается подозреваемым преступником. Он обвиняется в том, что совершит убийство человека, которого пока он даже не знает.
Джон не верит в это, но теперь он вынужден сам скрываться от своих коллег. Единственная для него возможность доказать свою невиновность — это показать, что новая программа допускает ошибки и отнюдь не так идеальна, как этого хотелось бы многим…
-Качество: BDRip 1080p
Формат: MKV
Видео кодек: H.264
Аудио кодек: DTS
Видео: MPEG-4 AVC, 1920x800, 23.976 fps, 10.9 Mbps
Аудио: Russian - DTS 5.1, 755 kbps, 48 KHz-

Рейтинги

Media Info

Код: copyText_writeLink('this.parentNode.parentNode.nextSibling.nextSibling');
General
Unique ID : 184946584300933816724474746392308959150 (0x8B236A9E8BF49B2EAD97E060C1C947AE)
Complete name : G:\HDTV\Особое мнение (1920х800) [2002].mkv
Format : Matroska
Format version : Version 2
File size : 12.5 GiB
Duration : 2h 25mn
Overall bit rate : 12.3 Mbps
Movie name : Особое мнение | Minority Report - Witcher
Encoded date : UTC 2011-05-03 07:28:59
Writing application : mkvmerge v4.3.0 ('Escape from the Island') сборка от Sep 5 2010 10:30:51
Writing library : libebml v1.0.0 + libmatroska v1.0.0
Attachment : Yes / Yes / Yes
Video
ID : 1
Format : AVC
Format/Info : Advanced Video Codec
Format profile : [url=mailto:High@L4.1]High@L4.1[/url]
Format settings, CABAC : Yes
Format settings, ReFrames : 5 frames
Muxing mode : Header stripping
Codec ID : V_MPEG4/ISO/AVC
Duration : 2h 25mn
Bit rate : 10.9 Mbps
Width : 1 920 pixels
Height : 800 pixels
Display aspect ratio : 2.40:1
Frame rate : 23.976 fps
Color space : YUV
Chroma subsampling : 4:2:0
Bit depth : 8 bits
Scan type : Progressive
Bits/(Pixel*Frame) : 0.296
Stream size : 11.5 GiB (92%)
Title : Особое мнение | Minority Report
Writing library : x264 core 92 r1510 33d382a
Encoding settings : cabac=1 / ref=5 / deblock=1:-3:-3 / analyse=0x3:0x133 / me=umh / subme=10 / psy=1 / psy_rd=1.06:0.10 / mixed_ref=1 / me_range=64 / chroma_me=1 / trellis=2 / 8x8dct=1 / cqm=0 / deadzone=21,11 / fast_pskip=0 / chroma_qp_offset=-3 / threads=3 / sliced_threads=0 / nr=0 / decimate=1 / interlaced=0 / constrained_intra=0 / bframes=7 / b_pyramid=2 / b_adapt=2 / b_bias=0 / direct=3 / wpredb=1 / wpredp=2 / keyint=250 / keyint_min=25 / scenecut=40 / intra_refresh=0 / rc_lookahead=40 / rc=2pass / mbtree=1 / bitrate=10911 / ratetol=1.0 / qcomp=0.60 / qpmin=10 / qpmax=51 / qpstep=4 / cplxblur=20.0 / qblur=0.5 / vbv_maxrate=25000 / vbv_bufsize=25000 / ip_ratio=1.40 / aq=1:1.00 / nal_hrd=none
Language : English
Audio
ID : 2
Format : DTS
Format/Info : Digital Theater Systems
Muxing mode : Header stripping
Codec ID : A_DTS
Duration : 2h 25mn
Bit rate mode : Constant
Bit rate : 755 Kbps
Channel(s) : 6 channels
Channel positions : Front: L C R, Side: L R, LFE
Sampling rate : 48.0 KHz
Bit depth : 24 bits
Compression mode : Lossy
Delay relative to video : 11ms
Stream size : 783 MiB (6%)
Title : Невафильм
Language : Russian
Text #1
ID : 3
Format : ASS
Codec ID : S_TEXT/ASS
Codec ID/Info : Advanced Sub Station Alpha
Compression mode : Lossless
Language : English
Text #2
ID : 4
Format : UTF-8
Codec ID : S_TEXT/UTF8
Codec ID/Info : UTF-8 Plain Text
Language : Russian
Menu
00:00:00.000 : en:Red Ball
00:06:47.073 : en:The Arrest of Howard Marks
00:14:49.889 : en:Clarity
00:21:13.021 : en:Pre-Determination
00:24:43.690 : en:Can You See?
00:29:46.034 : en:Ann Lively
00:37:09.518 : en:Case 1109
00:42:42.476 : en:Everybody Runs
00:51:41.973 : en:Auto Assembly Line
00:55:18.606 : en:History of the Precogs
00:59:57.385 : en:Minority Reports
01:05:10.907 : en:Eyeworks
01:09:41.927 : en:Public Pool
01:17:00.657 : en:The Spyders
01:22:21.561 : en:Agatha Is the Key
01:27:57.897 : en:Downloading Agatha
01:35:42.445 : en:Balloon Man
01:39:08.776 : en:Leo Crow
01:49:06.206 : en:An Echo
01:54:02.001 : en:So Much Love in This House
02:01:28.531 : en:All Thumbs
02:06:43.095 : en:A World Without Murder
02:13:11.817 : en:Forgive Me, John
02:15:40.632 : en:In Peace

Скриншоты


_________________
Показать сообщения:    

Текущее время: Сегодня 13:30

Часовой пояс: GMT



Вы не можете начинать темы
Вы не можете отвечать на сообщения
Вы не можете редактировать свои сообщения
Вы не можете удалять свои сообщения
Вы не можете голосовать в опросах
Вы не можете прикреплять файлы к сообщениям
Вы не можете скачивать файлы
Наши партнеры: интернет магазин Ивановского трикотажа textilla.ru