Ивановский Торрент трекер
Яндекс.Погода
 

[Цитировать]
HUNTER

Осмосис Джонс / Osmosis Jones«She's got a jones for Osmosis. Leah. One hot hormone»- Страна: США
Жанр: мультфильм, фэнтези, боевик, комедия, приключения
Год выпуска: 2001
Продолжительность: 01:35:23
Перевод: Профессиональный (полное дублирование)
Перевод 2: Профессиональный (Многоголосый закадровый)
Перевод 3: Профессиональный (Многоголосый закадровый) - ТВ-3
Перевод 4: Одноголосый закадровый - Пётр Гланц
Перевод 5: Авторский (Одноголосый закадровый) - Андрей Гаврилов
Перевод 6: Авторский (Одноголосый закадровый) - Юрий Живов
Русские субтитры: Есть-Режиссер: Бобби Фаррелли / Bobby Farrelly, Питер Фаррелли / Peter Farrelly-Роли озвучивали: Крис Рок (Osmosis Jones, озвучка), Лоренс Фишбёрн (Thrax, озвучка), Дэвид Хайд Пирс (Drix, озвучка), Брэнди Норвуд (Leah, озвучка), Уильям Шетнер (Mayor Phlegmming, озвучка), Рон Ховард (Tom Colonic, озвучка), Кид Рок (Kidney Rock, озвучка), Кенни Олсон (Kidney Rock, озвучка), Джейсон Краузе (Kidney Rock, озвучка), Джо С. (Kidney Rock, озвучка), Стефани Юлинберг (Kidney Rock, озвучка), Джимми Бонс (Kidney Rock, озвучка)-Роли дублировали: Вячеслав Баранов (Osmosis Jones), Леонид Белозорович (Thrax), Валерий Сторожик (Drix), Ольга Кузнецова (Leah), Владимир Ферапонтов (Mayor Phlegmming), Владимир Конкин (Tom Colonic; Bob), Алексей Золотницкий (Frank Detorre), Марина Дюжева (Mrs. Boyd)-Описание: Он - герой новой породы. Одноклеточный герой нашего времени. Он - Осмосис Джонс. Этот заразительный мультипликационный боевик начинается с того, что Фрэнк проглатывает злодейский вирус по имени Трэкс.
Теперь, глубоко внутри удивительных мультипликационных внутренностей города Фрэнк, одинокий полицейский - белая кровяная клетка по имени Осмосис Джонс и его упорный помощник Дрикс должны помешать злобной эпидемии, развязанной Трэксом!-Рейтинг:

MPAA: - Рекомендуется присутствие родителей-Бюджет: $75 000 000
Сборы в США: $13 596 911
Сборы в мире: $14 026 418
Мировая премьера: 7 августа 2001
Релиз на DVD: 19 июня 2002 «Мост-Видео»-Релиз: -Качество: WEB-DLRip
Формат: Avi
Видео: 720x304 (2.37:1), 23.976 fps, XviD build 65 ~1794 kbps avg, 0.34 bit/pixel
Аудио #1: [RUS] 48 kHz, AC3 Dolby Digital, 3/2 (L,C,R,l,r) + LFE ch, ~384 kbps - DUB - R5
Аудио #2: [RUS] 48 kHz, AC3 Dolby Digital, 3/2 (L,C,R,l,r) + LFE ch, ~384 kbps - MVO
Аудио #3: [RUS] 48 kHz, AC3 Dolby Digital, 2/0 (L,R) ch, ~192 kbps kbps avg - MVO - TB3
Аудио #4: [RUS] 48 kHz, AC3 Dolby Digital, 3/2 (L,C,R,l,r) + LFE ch, ~384 kbps - AVO - Пётр Гланц
Аудио #5: [RUS] 48 kHz, AC3 Dolby Digital, 3/2 (L,C,R,l,r) + LFE ch, ~384 kbps - AVO - Андрей Гаврилов
Аудио #6: [RUS] 48 kHz, AC3 Dolby Digital, 3/2 (L,C,R,l,r) + LFE ch, ~384 kbps - AVO - Юрий Живов
Аудио #7: [UKR] 48 kHz, AC3 Dolby Digital, 3/2 (L,C,R,l,r) + LFE ch, ~384 kbps - DVO - Новый Канал
Аудио #8: [ENG] 48 kHz, AC3 Dolby Digital, 3/2 (L,C,R,l,r) + LFE ch, ~384 kbps
Субтитры: русские (forced, iTunes, DVD), английские-

MI

Format : AVIFormat/Info : Audio Video InterleaveFile size : 1.46 GiBDuration : 1h 35mnOverall bit rate : 2 188 KbpsWriting application : VirtualDubMod 1.5.10.3 | www.virtualdub-fr.org || (build 2550/release)Writing library : VirtualDubMod build 2550/release
VideoID : 0Format : MPEG-4 VisualFormat profile : Advanced Simple@L5Format settings, BVOP : 2Format settings, QPel : NoFormat settings, GMC : No warppointsFormat settings, Matrix : CustomCodec ID : XVIDCodec ID/Hint : XviDDuration : 1h 35mnBit rate : 1 795 KbpsWidth : 720 pixelsHeight : 304 pixelsDisplay aspect ratio : 2.35:1Frame rate : 23.976 (23976/1000) fpsColor space : YUVChroma subsampling : 4:2:0Bit depth : 8 bitsScan type : ProgressiveCompression mode : LossyBits/(Pixel*Frame) : 0.342Stream size : 1.20 GiB (82%)Writing library : XviD 65
AudioID : 1Format : AC-3Format/Info : Audio Coding 3Mode extension : CM (complete main)Format settings, Endianness : BigCodec ID : 2000Duration : 1h 35mnBit rate mode : ConstantBit rate : 384 KbpsChannel(s) : 6 channelsChannel positions : Front: L C R, Side: L R, LFESampling rate : 48.0 KHzFrame rate : 31.250 fps (1536 spf)Compression mode : LossyStream size : 262 MiB (18%)Alignment : Split accross interleavesInterleave, duration : 42 ms (1.00 video frame)Interleave, preload duratio : 500 ms
Все раздачи мультфильма!
Показать сообщения:    

Текущее время: 20-Сен 06:40

Часовой пояс: UTC - 1


Вы не можете начинать темы
Вы не можете отвечать на сообщения
Вы не можете редактировать свои сообщения
Вы не можете удалять свои сообщения
Вы не можете голосовать в опросах
Вы не можете прикреплять файлы к сообщениям
Вы не можете скачивать файлы

!ВНИМАНИЕ!
Сайт не предоставляет электронные версии произведений, а занимается лишь коллекционированием и каталогизацией ссылок, присылаемых и публикуемых на форуме нашими читателями. Если вы являетесь правообладателем какого-либо представленного материала и не желаете, чтобы ссылка на него находилась в нашем каталоге, свяжитесь с нами, и мы незамедлительно удалим ее. Файлы для обмена на трекере предоставлены пользователями сайта, и администрация не несет ответственности за их содержание. Просьба не заливать файлы, защищенные авторскими правами, а также файлы нелегального содержания!