Ивановский Торрент трекер
Яндекс.Погода
 

[Цитировать]
HUNTER

Осмосис Джонс / Osmosis Jones / Полноэкранная версия / Full Screen
«She's got a jones for Osmosis. Leah. One hot hormone.»
- Страна: США
Жанр: приключения, анимация
Продолжительность: 01:31:30
Год выпуска: 2001
Перевод: Профессиональный (многоголосый закадровый) ТВ-3 Россия
Русские субтитры: нет-Режиссёр:
Бобби Фаррелли / Bobby Farrelly, Питер Фаррелли / Peter Farrelly-Роли озвучивали:
Крис Рок (Osmosis Jones, озвучка), Лоренс Фишбёрн (Thrax, озвучка), Дэвид Хайд Пирс (Drix, озвучка), Брэнди Норвуд (Leah, озвучка), Уильям Шетнер (Mayor Phlegmming, озвучка), Рон Ховард (Tom Colonic, озвучка), Кид Рок (Kidney Rock, озвучка), Кенни Олсон (Kidney Rock, озвучка), Джейсон Краузе (Kidney Rock, озвучка), Джо С. (Kidney Rock, озвучка), Stefanie Eulinberg (Kidney Rock, озвучка), Джимми Бонс (Kidney Rock, озвучка)-Описание:
Он — герой новой породы. Одноклеточный герой нашего времени. Он — Осмосис Джонс. Этот заразительный мультипликационный боевик начинается с того, что Фрэнк проглатывает злодейский вирус по имени Трэкс.
Теперь, глубоко внутри удивительных мультипликационных внутренностей города Фрэнк, одинокий полицейский — белая кровяная клетка по имени Осмосис Джонс и его упорный помощник Дрикс должны помешать злобной эпидемии, развязанной Трэксом!-Рейтинг
kinopoisk.ru: 7.356 (4239)
imdb.com: 6.20 (20 745)
MPAA: - Рекомендуется присутствие родителей-Качество: SATRip | исх. [DVB] спасибо «Lexa1988-L1»
Формат: AVI | → //SAMPLE//
Видео: 688x528 (1.30:1), 25.000 fps, XviD build 65 ~2198 kbps avg, 0.242 bit/pixel
Аудио: 48.0 kHz, MPEG Layer 2, 2 ch, ~256.00 kbps avg | MVO
Субтитры: Отсутствуют
Размер: 1491.30 Mb (1/3 DVD-R)
-Подробные технические данные
ОбщееПолное имя : A:\Фильмы\Осмосис Джонс.2001.SATRip.XviD.1.46Gb.mpeg2.aviФормат : AVIФормат/Информация : Audio Video InterleaveРазмер файла : 1,46 ГбайтПродолжительность : 1 ч. 24 м.Общий поток : 2463 Кбит/секПрограмма кодирования : VirtualDubMod 1.5.10.3 | www.virtualdub-fr.org || (build 2550/release)Библиотека кодирования : VirtualDubMod build 2550/release
ВидеоИдентификатор : 0Формат : MPEG-4 VisualПрофиль формата : Advanced Simple@L5Параметр BVOP формата : 1Параметр QPel формата : НетПараметр GMC формата : Без точки переходаПараметр матрицы формата : ВыборочнаяИдентификатор кодека : XVIDИдентификатор кодека/Подсказка : XviDПродолжительность : 1 ч. 24 м.Битрейт : 2198 Кбит/секШирина : 688 пикселейВысота : 528 пикселейСоотношение сторон : 1.30:1Частота кадров : 25,000 кадров/секЦветовое пространство : YUVСубдискретизация насыщенности : 4:2:0Битовая глубина : 8 битТип развёртки : ПрогрессивнаяМетод сжатия : С потерямиБит/(Пиксели*Кадры) : 0.242Размер потока : 1,30 Гбайт (89%)Библиотека кодирования : XviD 65
АудиоИдентификатор : 1Формат : MPEG AudioВерсия формата : Version 1Профиль формата : Layer 2Идентификатор кодека : 50Продолжительность : 1 ч. 24 м.Вид битрейта : ПостоянныйБитрейт : 256 Кбит/секКаналы : 2 каналаЧастота : 48,0 КГцМетод сжатия : С потерямиРазмер потока : 155 Мбайт (10%)Выравнивание : Соединение по промежуткамПродолжительность промежутка : 40 мс. (1,00 видеокадр)Время предзагрузки промежутка : 504 мс.
Скриншоты
Показать сообщения:    

Текущее время: 24-Окт 03:11

Часовой пояс: UTC - 1


Вы не можете начинать темы
Вы не можете отвечать на сообщения
Вы не можете редактировать свои сообщения
Вы не можете удалять свои сообщения
Вы не можете голосовать в опросах
Вы не можете прикреплять файлы к сообщениям
Вы не можете скачивать файлы

!ВНИМАНИЕ!
Сайт не предоставляет электронные версии произведений, а занимается лишь коллекционированием и каталогизацией ссылок, присылаемых и публикуемых на форуме нашими читателями. Если вы являетесь правообладателем какого-либо представленного материала и не желаете, чтобы ссылка на него находилась в нашем каталоге, свяжитесь с нами, и мы незамедлительно удалим ее. Файлы для обмена на трекере предоставлены пользователями сайта, и администрация не несет ответственности за их содержание. Просьба не заливать файлы, защищенные авторскими правами, а также файлы нелегального содержания!