Важное объявление!
У Нас Все раздачи мультитрекерные, при нуле пиров в релизах, можете смело вставать на закачку!
 
Автор Сообщение

димитри37

Стаж:
3 года 10 месяцев
Сообщений:
1237

Репутация: 127

[+] [-]
Вне форума [Профиль] [ЛС]

Ослепленный желаниями / Bedazzled
Страна: США, Германия
Жанр: фэнтези, комедия
Год выпуска:: 2000
Продолжительность: 01:33:08
Перевод 1: Профессиональный (полное дублирование)
Cубтитры: английские, русские, русские (forced)
Оригинальная аудиодорожка: английский
Режиссер: Харольд Рэмис / Harold Ramis
В ролях:Брендан Фрейзер, Элизабет Херли, Фрэнсис О’Коннор, Мириам Шор, Орландо Джонс, Пол Адельштейн, Тоби Хасс, Гэбриел Коссес, Брайан Дойл-Мюррей, Джефф Дусетте
Описание:Дьявол еще никогда не был таким соблазнительным. В этот раз он принимает обличие распутной красотки, заставляющий любого мужчину броситься в объятия безумства. Неудачник-программист — лучший объект для вербовки. Объект продажи — бессмертная душа. Цена — 7 желаний. Но в этой жизни бесплатным бывает лишь сыр в мышеловке, каждая медаль имеет две стороны. Выполняя любое желание продажной души, дьявол не дает насладиться результатом. В мгновение ока жизнь программиста превращается в настоящий ад.
Качество видео: BDRip
Исходное видео: Bedazzled.2000_BD-Remux_DUB.DVO.AVO.mkv
Контейнер: MKV
Видео: AVC 1024x432 (2,40:1), 2570 kbps, 23.976 fps, quality: 0.242
Аудио: AC-3 384 kbps, Dolby Digital, 3/2 (L,C,R,l,r) + LFE ch, 48 KHz |Дубляж|
Аудио: AC-3, 384 kbps, Dolby Digital, 3/2 (L,C,R,l,r) + LFE ch, 48 KHz |Original|
Формат субтитров: softsub (SRT)

MediaInfo

х264

x264 [info]: frame I:1057 Avg QP:15.51 size: 97592
x264 [info]: frame P:28164 Avg QP:18.59 size: 30464
x264 [info]: frame B:104771 Avg QP:21.39 size: 7961
x264 [info]: consecutive B-frames: 1.8% 1.8% 5.6% 19.6% 23.2% 40.0% 5.0% 1.7% 0.7% 0.7%
x264 [info]: mb I I16..4: 14.1% 57.1% 28.9%
x264 [info]: mb P I16..4: 0.7% 10.2% 1.7% P16..4: 30.1% 37.3% 14.1% 2.8% 0.3% skip: 2.8%
x264 [info]: mb B I16..4: 0.0% 1.2% 0.1% B16..8: 38.3% 19.1% 3.1% direct: 5.7% skip:32.4% L0:43.3% L1:44.7% BI:12.0%
x264 [info]: 8x8 transform intra:78.5% inter:56.3%
x264 [info]: direct mvs spatial:98.9% temporal:1.1%
x264 [info]: coded y,uvDC,uvAC intra: 95.9% 86.6% 65.6% inter: 28.7% 23.9% 10.1%
x264 [info]: i16 v,h,dc,p: 22% 10% 21% 47%
x264 [info]: i8 v,h,dc,ddl,ddr,vr,hd,vl,hu: 10% 7% 7% 10% 14% 15% 13% 12% 12%
x264 [info]: i4 v,h,dc,ddl,ddr,vr,hd,vl,hu: 11% 8% 5% 9% 15% 15% 13% 12% 12%
x264 [info]: i8c dc,h,v,p: 40% 22% 20% 18%
x264 [info]: Weighted P-Frames: Y:3.2% UV:1.2%
x264 [info]: ref P L0: 39.1% 10.9% 19.8% 6.4% 6.4% 3.8% 4.1% 1.9% 2.1% 1.4% 1.6% 1.2% 1.4% 0.1% 0.0%
x264 [info]: ref B L0: 73.0% 11.4% 5.3% 2.8% 2.0% 1.7% 1.3% 0.8% 0.7% 0.6% 0.3% 0.2%
x264 [info]: ref B L1: 93.3% 6.7%
x264 [info]: kb/s:2569.76
x264 [total]: encoded 133992 frames, 2.75 fps, 2569.76 kb/s

MediaInfo

Полное имя : H:\Bedazzled.2000.Dab_BDRip_cw.mkv
Формат : Matroska
Версия формата : Version 2
Размер файла : 2,17 Гбайт
Продолжительность : 1 ч. 33 м.
Общий поток : 3340 Кбит/сек
Название фильма : Ослепленный желаниями
Дата кодирования : UTC 2013-05-28 06:26:18
Программа кодирования : mkvmerge v5.5.0 ('Healer') built on Apr 24 2012 23:47:03
Библиотека кодирования : libebml v1.2.3 + libmatroska v1.3.0
Видео
Идентификатор : 1
Формат : AVC
Формат/Информация : Advanced Video Codec
Профиль формата : High@L4.1
Параметр CABAC формата : Да
Параметр ReFrames формата : 13 кадров
Идентификатор кодека : V_MPEG4/ISO/AVC
Продолжительность : 1 ч. 33 м.
Битрейт : 2570 Кбит/сек
Ширина : 1024 пикселя
Высота : 432 пикселя
Соотношение сторон : 2,40:1
Частота кадров : 23,976 кадра/сек
Цветовое пространство : YUV
Субдискретизация насыщенности : 4:2:0
Битовая глубина : 8 бит
Тип развёртки : Прогрессивная
Бит/(Пиксели*Кадры) : 0.242
Размер потока : 1,63 Гбайт (75%)
Заголовок : Bedazzled
Библиотека кодирования : x264 core 130 r2273 b3065e6
Настройки программы : cabac=1 / ref=13 / deblock=1:-1:-1 / analyse=0x3:0x133 / me=umh / subme=11 / psy=1 / psy_rd=1.00:0.08 / mixed_ref=1 / me_range=56 / chroma_me=1 / trellis=2 / 8x8dct=1 / cqm=0 / deadzone=21,11 / fast_pskip=1 / chroma_qp_offset=-3 / threads=4 / lookahead_threads=1 / sliced_threads=0 / nr=0 / decimate=0 / interlaced=0 / bluray_compat=0 / constrained_intra=0 / bframes=9 / b_pyramid=2 / b_adapt=2 / b_bias=0 / direct=3 / weightb=1 / open_gop=0 / weightp=2 / keyint=250 / keyint_min=23 / scenecut=40 / intra_refresh=0 / rc_lookahead=50 / rc=2pass / mbtree=1 / bitrate=2570 / ratetol=1.0 / qcomp=0.60 / qpmin=0 / qpmax=69 / qpstep=4 / cplxblur=20.0 / qblur=0.5 / ip_ratio=1.40 / aq=1:1.00
Язык : English
Default : Да
Forced : Нет
Аудио #1
Идентификатор : 2
Формат : AC-3
Формат/Информация : Audio Coding 3
Расширение режима : CM (complete main)
Параметр Endianness формата : Big
Идентификатор кодека : A_AC3
Продолжительность : 1 ч. 33 м.
Вид битрейта : Постоянный
Битрейт : 384 Кбит/сек
Каналы : 6 каналов
Расположение каналов : Front: L C R, Side: L R, LFE
Частота : 48,0 КГц
Битовая глубина : 16 бит
Метод сжатия : С потерями
Размер потока : 256 Мбайт (11%)
Заголовок : Dub
Язык : Russian
Default : Да
Forced : Нет
Аудио #2
Идентификатор : 3
Формат : AC-3
Формат/Информация : Audio Coding 3
Расширение режима : CM (complete main)
Параметр Endianness формата : Big
Идентификатор кодека : A_AC3
Продолжительность : 1 ч. 33 м.
Вид битрейта : Постоянный
Битрейт : 384 Кбит/сек
Каналы : 6 каналов
Расположение каналов : Front: L C R, Side: L R, LFE
Частота : 48,0 КГц
Битовая глубина : 16 бит
Метод сжатия : С потерями
Размер потока : 256 Мбайт (11%)
Заголовок : Original
Язык : English
Default : Нет
Forced : Нет
Текст #1
Идентификатор : 4
Формат : UTF-8
Идентификатор кодека : S_TEXT/UTF8
Идентификатор кодека/Информация : UTF-8 Plain Text
Заголовок : Full
Язык : Russian
Default : Нет
Forced : Нет
Текст #2
Идентификатор : 5
Формат : UTF-8
Идентификатор кодека : S_TEXT/UTF8
Идентификатор кодека/Информация : UTF-8 Plain Text
Заголовок : Форс
Язык : Russian
Default : Да
Forced : Нет
Текст #3
Идентификатор : 6
Формат : UTF-8
Идентификатор кодека : S_TEXT/UTF8
Идентификатор кодека/Информация : UTF-8 Plain Text
Язык : English
Default : Нет
Forced : Нет

Скриншоты

Сравнения

source encod
-
Показать сообщения:    

Текущее время: Сегодня 15:20

Часовой пояс: GMT



Вы не можете начинать темы
Вы не можете отвечать на сообщения
Вы не можете редактировать свои сообщения
Вы не можете удалять свои сообщения
Вы не можете голосовать в опросах
Вы не можете прикреплять файлы к сообщениям
Вы не можете скачивать файлы
Наши партнеры: интернет магазин Ивановского трикотажа textilla.ru