Важное объявление!
У Нас Все раздачи мультитрекерные, при нуле пиров в релизах, можете смело вставать на закачку!
 
Автор Сообщение

димитри37

Стаж:
4 года
Сообщений:
1236

Репутация: 127

[+] [-]
Вне форума [Профиль] [ЛС]

Осквернители / The Defilers
Страна: США
Жанр: триллер, драма
Год выпуска: 1965
Продолжительность: 01:08:44
Перевод: Одноголосый закадровый Юрий Медведев
Оригинальная аудиодорожка: английский
Режиссер: Ли Фрост / Lee Frost, Дэвид Ф. Фридман / David F. Friedman
В ролях:
Байрон Мейб
Джером Иден
Мэй Янссон
Кэрол Дарк
Линда Кохрэн
Кэти Шарп
Сандра Синклер
Мими Марлоу
Тед Купер
Marti Litis
Описание: Двое головорезов знакомятся с прелестной молодой особой и позже похищают девушку прямо из её квартиры,
и запирают в подвале на старом складе. Позже она будет согласна на любые их капризы, чтобы только остаться в живых.
релиз:

Качество видео: DVDRip
Формат видео: AVI
Видео: MPEG-4 Visual, XVID, 2 361 Kbps, 720x544, 23.976 fps
Аудио: AC-3, 192 Kbps, 2 channels, 48.0 KHz (русский)
Аудио 2: AC-3, 192 Kbps, 2 channels, 48.0 KHz (английский)

инфо

General
Complete name : D:\torrent\1 раздачи\Осквернители\Осквернители (1965).avi
Format : AVI
Format/Info : Audio Video Interleave
File size : 1.47 GiB
Duration : 1h 8mn
Overall bit rate mode : Variable
Overall bit rate : 3 052 Kbps
Writing application : VirtualDubMod 1.5.4.1 (build 2178/release)
Writing library : VirtualDubMod build 2178/release
Video
ID : 0
Format : MPEG-4 Visual
Format profile : Advanced Simple@L5
Format settings, BVOP : No
Format settings, QPel : No
Format settings, GMC : No warppoints
Format settings, Matrix : Custom
Codec ID : XVID
Codec ID/Hint : XviD
Duration : 1h 8mn
Bit rate : 2 361 Kbps
Width : 720 pixels
Height : 544 pixels
Display aspect ratio : 4:3
Frame rate : 23.976 fps
Color space : YUV
Chroma subsampling : 4:2:0
Bit depth : 8 bits
Scan type : Progressive
Compression mode : Lossy
Bits/(Pixel*Frame) : 0.294
Stream size : 1.33 GiB (90%)
Writing library : XviD 1.2.1 (UTC 2008-12-04)
Audio #1
ID : 1
Format : AC-3
Format/Info : Audio Coding 3
Mode extension : CM (complete main)
Format settings, Endianness : Big
Codec ID : 2000
Duration : 1h 8mn
Bit rate mode : Constant
Bit rate : 192 Kbps
Channel(s) : 2 channels
Channel positions : Front: L R
Sampling rate : 48.0 KHz
Bit depth : 16 bits
Compression mode : Lossy
Stream size : 94.4 MiB (6%)
Alignment : Split accross interleaves
Interleave, duration : 96 ms (2.30 video frames)
Interleave, preload duration : 96 ms
Language : Russian
Audio #2
ID : 2
Format : MPEG Audio
Format version : Version 1
Format profile : Layer 3
Mode : Joint stereo
Mode extension : MS Stereo
Codec ID : 55
Codec ID/Hint : MP3
Duration : 1h 8mn
Bit rate mode : Variable
Bit rate : 83.9 Kbps
Nominal bit rate : 128 Kbps
Channel(s) : 2 channels
Sampling rate : 48.0 KHz
Compression mode : Lossy
Stream size : 41.2 MiB (3%)
Alignment : Aligned on interleaves
Interleave, duration : 24 ms (0.58 video frame)
Interleave, preload duration : 514 ms
Writing library : LAME3.98r
Encoding settings : -m j -V 4 -q 2 -lowpass 17 --abr 128
Language : English
Показать сообщения:    

Текущее время: Сегодня 04:11

Часовой пояс: GMT



Вы не можете начинать темы
Вы не можете отвечать на сообщения
Вы не можете редактировать свои сообщения
Вы не можете удалять свои сообщения
Вы не можете голосовать в опросах
Вы не можете прикреплять файлы к сообщениям
Вы не можете скачивать файлы
Наши партнеры: интернет магазин Ивановского трикотажа textilla.ru