Ивановский Торрент трекер
Яндекс.Погода
 

[Цитировать]
HUNTER

Освобождение
Год выпуска: 2012-2013
Страна: Россия
Жанр: Документальный
Продолжительность: 32 х ~ 00:24:00
Перевод: Не требуется
Режиссер: Денис Мицук, Денис Андреев
Описание: В 1944 году советские войска восстановили границу СССР. Но необходимо было идти дальше, до Берлина. Германия была еще сильна, а союзники по антигитлеровской коалиции в одночасье могли стать и противниками. Остановиться сейчас означило завтра потерпеть поражение. На фронте все, от солдата до маршала, это хорошо понимали. Что бы выжить нужно было победить, «добить зверя в его же логове»… Уникальный документальный сериал «Освобождение» о блестящих операциях Красной Армии в Европе, о том какой ценой досталась эта победа и том, как как немецкий имперский нацизм победила простая советская правда.
Качество: SATRip
Формат: AVI
Видео: XviD, 704x528, (1.33:1), ~ 1500 kbps avg, 25 fps, 0.16 bit/pixel
Аудио 1: 48 kHz, MPEG Layer 3, 2 ch, ~192.00 kbps avg (1-12)
Аудио 2: 48 kHz, Audio Coding 3, 2 ch, ~192.00 kbps avg (13-32)
Релиз: ValkiriaGF (13-32 серии)

Список выпусков/серий

01. Восточно-Прусская операция. Разведка
02. Гумбинненская наступательная операция
03. Инстербургско-Кенигсбергская наступательная операция
04. Висло-Одерская операция. Прорыв
05. Висло-Одерская операция. Развитие
06. Висло-Одерская операция. Завершение
07. Млавско-Эльбингская наступательная операция
08. Растенбургско-Хейльсбергская наступательная операция
09. Восточно-Померанская наступательная операция
10. Браунсбергская наступательная операция
11. Кенигсбергская наступательная операция
12. Земландская наступательная операция
13. Львовско-Сандомирская наступательная операция
14. Яссо-Кишиневская наступательная операция
15. Белградская наступательная операция
16. Дебреценская наступательная операция
17. Будапештская наступательная операция
18. Восточно-Карпатская наступательная операция
19. Западно-Карпатская наступательная операция
20. Моравско-Остравская наступательная операция
21. Братиславско-Брновская наступательная операция
22. Балатонская оборонительная операция
23. Венская наступательная операция
24. Нижне-Силезская наступательная операция
25. Верхне-Cилезская наступательная операция
26. Берлинская наступательная операция. Подготовительный этап
27. Берлинская наступательная операция. Прорыв
28. Берлинская наступательная операция. Окружение
29. Штурм Берлина
30. Штурм Рейхстага
31. Пражская наступательная операция
32. Капитуляция Германии

MediaInfo

General
Complete name : D:\Фильмы\Освобождение 32 серии из 32\01. Восточно-Прусская операция. Разведка.avi
Format : AVI
Format/Info : Audio Video Interleave
File size : 292 MiB
Duration : 24mn 2s
Overall bit rate : 1 697 Kbps
Writing application : VirtualDubMod 1.5.10.3 | www.virtualdub-fr.org || (build 2550/release)
Writing library : VirtualDubMod build 2550/release
Video
ID : 0
Format : MPEG-4 Visual
Format profile : Advanced Simple@L5
Format settings, BVOP : 2
Format settings, QPel : No
Format settings, GMC : No warppoints
Format settings, Matrix : Default (MPEG)
Codec ID : XVID
Codec ID/Hint : XviD
Duration : 24mn 2s
Bit rate : 1 495 Kbps
Width : 704 pixels
Height : 528 pixels
Display aspect ratio : 4:3
Frame rate : 25.000 fps
Color space : YUV
Chroma subsampling : 4:2:0
Bit depth : 8 bits
Scan type : Progressive
Compression mode : Lossy
Bits/(Pixel*Frame) : 0.161
Stream size : 257 MiB (88%)
Writing library : XviD 1.2.1 (UTC 2008-12-04)
Audio
ID : 1
Format : MPEG Audio
Format version : Version 1
Format profile : Layer 3
Codec ID : 55
Codec ID/Hint : MP3
Duration : 24mn 2s
Bit rate mode : Constant
Bit rate : 192 Kbps
Channel(s) : 2 channels
Sampling rate : 48.0 KHz
Compression mode : Lossy
Stream size : 33.0 MiB (11%)
Alignment : Aligned on interleaves
Interleave, duration : 40 ms (1.00 video frame)
Interleave, preload duration : 504 ms
Writing library : LAME3.99r
Encoding settings : -m s -V 4 -q 0 -lowpass 18.6 -b 192

Скриншоты

Показать сообщения:    

Текущее время: 17-Окт 19:36

Часовой пояс: UTC - 1


Вы не можете начинать темы
Вы не можете отвечать на сообщения
Вы не можете редактировать свои сообщения
Вы не можете удалять свои сообщения
Вы не можете голосовать в опросах
Вы не можете прикреплять файлы к сообщениям
Вы не можете скачивать файлы

!ВНИМАНИЕ!
Сайт не предоставляет электронные версии произведений, а занимается лишь коллекционированием и каталогизацией ссылок, присылаемых и публикуемых на форуме нашими читателями. Если вы являетесь правообладателем какого-либо представленного материала и не желаете, чтобы ссылка на него находилась в нашем каталоге, свяжитесь с нами, и мы незамедлительно удалим ее. Файлы для обмена на трекере предоставлены пользователями сайта, и администрация не несет ответственности за их содержание. Просьба не заливать файлы, защищенные авторскими правами, а также файлы нелегального содержания!