Ивановский Торрент трекер
Яндекс.Погода
 

[Цитировать]
HUNTER

Освобождение Севастополя
Год выпуска: 2012
Производство: О.С.А. - продакшн
Жанр: Документальный
Продолжительность: 00:34:45
Перевод: Не требуется
Русские субтитры: нет
Режиссер: Алексей Лябах
Описание: 1943 год. После поражения под Сталинградом и на Курской дуге советники рекомендуют Гитлеру срочно пересмотреть стратегию войны и готовиться к обороне. Сотни тысяч узников концлагерей, как правило, бывших солдат Красной Армии выводят на работы. От Балтики до Черного моря они строят новые укрепления, которые должны остановить советские войска. С этого момента война меняет свое направление и ставит точку на грандиозных планах фюрера по переустройству восточных территорий.

Качество: DVB
Формат: MPG
Видео кодек: MPEG2
Аудио кодек: MP2
Видео: MPEG2 Video 720x576 (4:3) 25.00fps Bit rate 4059Kbps Bits/(Pixel*Frame) 0.391
Аудио: MPEG Audio 48000Hz 2ch 192 Kbps

Скриншоты

MI

General
Complete name : D:\Torrent\Освобождение Севастополя.mpg
Format : MPEG-PS
File size : 1.05 GiB
Duration : 34mn 45s
Overall bit rate : 4 337 Kbps
Writing library : (c) 1998-2011 Womble Multimedia, Inc. / MPEG Video Wizard DVD 5.0.1.100 (03/2011) / Dec 15 2011
Video
ID : 224 (0xE0)
Format : MPEG Video
Format version : Version 2
Format profile : Main@Main
Format settings, BVOP : Yes
Format settings, Matrix : Default
Format settings, GOP : M=3, N=30
Duration : 34mn 45s
Bit rate mode : Variable
Bit rate : 4 059 Kbps
Nominal bit rate : 15.0 Mbps
Width : 720 pixels
Height : 576 pixels
Display aspect ratio : 4:3
Frame rate : 25.000 fps
Standard : PAL
Color space : YUV
Chroma subsampling : 4:2:0
Bit depth : 8 bits
Scan type : Progressive
Scan order : Top Field First
Bits/(Pixel*Frame) : 0.391
Stream size : 1 009 MiB (94%)
Writing library : (c) 1998-2011 Womble Multimedia, Inc. / MPEG Video Wizard DVD 5.0.1.100 (03/2011) / Dec 15 2011
Audio
ID : 192 (0xC0)
Format : MPEG Audio
Format version : Version 1
Format profile : Layer 2
Duration : 34mn 45s
Bit rate mode : Constant
Bit rate : 192 Kbps
Channel(s) : 2 channels
Sampling rate : 48.0 KHz
Video delay : -80ms
Stream size : 47.7 MiB (4%)
0 человек читают эту тему: 0 пользователей, 0 скрытых пользователей, 0 гостей

Показать сообщения:    

Текущее время: 22-Авг 23:44

Часовой пояс: UTC - 1


Вы не можете начинать темы
Вы не можете отвечать на сообщения
Вы не можете редактировать свои сообщения
Вы не можете удалять свои сообщения
Вы не можете голосовать в опросах
Вы не можете прикреплять файлы к сообщениям
Вы не можете скачивать файлы

!ВНИМАНИЕ!
Сайт не предоставляет электронные версии произведений, а занимается лишь коллекционированием и каталогизацией ссылок, присылаемых и публикуемых на форуме нашими читателями. Если вы являетесь правообладателем какого-либо представленного материала и не желаете, чтобы ссылка на него находилась в нашем каталоге, свяжитесь с нами, и мы незамедлительно удалим ее. Файлы для обмена на трекере предоставлены пользователями сайта, и администрация не несет ответственности за их содержание. Просьба не заливать файлы, защищенные авторскими правами, а также файлы нелегального содержания!