Осведомитель / Gibraltar / The Informant (Жюльен Леклерк / Julien Leclercq) [2013, Франция, Канада, криминал, драма, боевик, BDRip 720p] Sub Rus, Eng, Fre :: Ивановский Торрент трекер
Важное объявление!
У Нас Все раздачи мультитрекерные, при нуле пиров в релизах, можете смело вставать на закачку!
Статистика раздачи
Размер:     |    Зарегистрирован:     |    Скачан:     |   
Нет
 
     
 
 
Автор Сообщение

HUNTER

Стаж:
4 года 11 месяцев
Сообщений:
66090

Репутация: 101

[+] [-]
Вне форума [Профиль] [ЛС]

Осведомитель
Gibraltar (The Informant)
Жанр: криминал, драма, боевик
Продолжительность: 01:55:49
Год выпуска: 2013
Страна: Франция, Канада
Перевод: субтитры
Cубтитры: Rus, Eng, Fre
Оригинальная аудиодорожка: французский
Режиссер: Жюльен Леклерк / Julien Leclercq
В ролях: Жиль Леллуш, Тахар Рахим, Риккардо Скамарчио, Рафаэль Агоге, Мелани Бернье, Филипп Наон, Эйдан Дивайн, Власта Врана, Джо Кобден, Юсеф Хаджди
Описание:
Невероятная история обычного француза Марка Фьеве, который подрабатывал таможенным информатором в Гибралтаре. Неожиданно он оказался втянутым в политическую интригу и незаконную торговлю наркотиками…
Кинопоиск
IMDB
Качество: BDRip 720p
Контейнер: MKV
Видео кодек: AVC
Video: MPEG4 Video (H264) 1280x536, 4546 kbps, 24 fps
Audio: French, DTS, 6ch, 1509 kbps, 48.0 KHz
Формат субтитров: softsub (ass, srt)
Sample / Сэмпл

Скриншоты



MediaInfo

Общее
Формат : Matroska
Версия формата : Version 2
Размер файла : 5,00 Гбайт
Продолжительность : 1 ч. 55 м.
Общий поток : 6178 Кбит/сек
Дата кодирования : UTC 2016-03-31 19:02:56
Программа кодирования : mkvmerge v5.7.0 ('The Whirlwind') built on Jul 8 2012 20:08:51
Библиотека кодирования : libebml v1.2.3 + libmatroska v1.3.0
Видео
Идентификатор : 1
Формат : AVC
Формат/Информация : Advanced Video Codec
Профиль формата : High@L4.1
Параметр CABAC формата : Да
Параметр ReFrames формата : 5 кадров
Идентификатор кодека : V_MPEG4/ISO/AVC
Продолжительность : 1 ч. 55 м.
Битрейт : 4546 Кбит/сек
Ширина : 1280 пикселей
Высота : 536 пикселей
Соотношение сторон : 2,40:1
Режим частоты кадров : Постоянный
Частота кадров : 24,000 кадра/сек
Цветовое пространство : YUV
Субдискретизация насыщенности : 4:2:0
Битовая глубина : 8 бит
Тип развёртки : Прогрессивная
Бит/(Пиксели*Кадры) : 0.276
Размер потока : 3,68 Гбайт (74%)
Язык : English
Default : Да
Forced : Нет
Аудио
Идентификатор : 2
Формат : DTS
Формат/Информация : Digital Theater Systems
Режим : 16
Параметр Endianness формата : Big
Идентификатор кодека : A_DTS
Продолжительность : 1 ч. 55 м.
Вид битрейта : Постоянный
Битрейт : 1509 Кбит/сек
Каналы : 6 каналов
Расположение каналов : Front: L C R, Side: L R, LFE
Частота : 48,0 КГц
Битовая глубина : 24 бит
Метод сжатия : С потерями
Размер потока : 1,22 Гбайт (24%)
Язык : French
Default : Да
Forced : Нет
Текст #1
Идентификатор : 3
Формат : ASS
Идентификатор кодека : S_TEXT/ASS
Идентификатор кодека/Информация : Advanced Sub Station Alpha
Метод сжатия : Без потерь
Заголовок : ASS
Язык : Russian
Default : Да
Forced : Да
Текст #2
Идентификатор : 4
Формат : UTF-8
Идентификатор кодека : S_TEXT/UTF8
Идентификатор кодека/Информация : UTF-8 Plain Text
Заголовок : SRT
Язык : Russian
Default : Нет
Forced : Нет
Текст #3
Идентификатор : 5
Формат : UTF-8
Идентификатор кодека : S_TEXT/UTF8
Идентификатор кодека/Информация : UTF-8 Plain Text
Язык : English
Default : Нет
Forced : Нет
Текст #4
Идентификатор : 6
Формат : UTF-8
Идентификатор кодека : S_TEXT/UTF8
Идентификатор кодека/Информация : UTF-8 Plain Text
Язык : French
Default : Нет
Forced : Нет
Меню
00:00:00.000 : en:00:00:00.000
00:11:42.000 : en:00:11:42.000
00:21:53.000 : en:00:21:53.000
00:32:13.000 : en:00:32:13.000
00:41:45.000 : en:00:41:45.000
00:50:50.000 : en:00:50:50.000
00:59:36.000 : en:00:59:36.000
01:09:12.000 : en:01:09:12.000
01:19:18.000 : en:01:19:18.000
01:29:49.000 : en:01:29:49.000
01:40:37.000 : en:01:40:37.000
01:49:25.000 : en:01:49:25.000

_________________
Показать сообщения:    

Текущее время: Сегодня 03:53

Часовой пояс: GMT



Вы не можете начинать темы
Вы не можете отвечать на сообщения
Вы не можете редактировать свои сообщения
Вы не можете удалять свои сообщения
Вы не можете голосовать в опросах
Вы не можете прикреплять файлы к сообщениям
Вы не можете скачивать файлы