Ивановский Торрент трекер
Яндекс.Погода
 

[Цитировать]
димитри37

Осада Сиракуз. Архимед
L' Assedio di Siracusa

Страна: Италия, Франция
Жанр: драма, мелодрама, история
Год выпуска: 1960
Продолжительность: 01:52:51
Перевод: Одноголосый закадровый (Kolobroad)
Cубтитры: нет
Режиссер: Пьетро Франчиши / Pietro Francisci
В ролях: Россано Брацци, Тина Луиз, Сильва Кошина, Энрико Мария Салерно, Джино Черви, Альберто Фарнезе, Лучано Марин, Альфредо Варелли, Уолтер Грант, Мара Ломбардо и др.
Описание: III век до н.э. Средиземноморье является ареной военных действий двух великих держав того времени, Рима и Карфагена, соперничающих за влияние в регионе.
Гиерон II, царь греческого города Сиракузы, расположенного на острове Сицилия, старается всеми силами сохранить независимость в этой схватке, проводя политику нейтралитета.
Исторические свидетельства о жизни Архимеда, древнегреческого математика, физика и инженера из Сиракуз, сделавшего множество открытий в геометрии, заложившего основы механики, гидростатики и автора ряда важных изобретений, весьма скудны. Его биография, написанная его другом Гераклидом, не дошла до нашего времени.
Сведения о его жизни оставили нам Полибий, Тит Ливий, Цицерон, Плутарх, Витрувий и другие, жившие на много лет позже описываемых событий, и поэтому достоверность этих сведений оценить трудно.
И кто знает, насколько далеки от истины авторы фильма, предложившие свою версию тех событий...

Качество видео: DVDRip
Формат видео: AVI
Видео: XviD 704x368, 25 fps, ~1695 kbps
Аудио: AC3, 48 kHz, ~192 kbps, 2 ch (русский)

MediaInfo

Полное имя : Archimedes_1960.avi
Формат : AVI
Формат/Информация : Audio Video Interleave
Размер файла : 1,49 Гбайт
Продолжительность : 1 ч. 52 м.
Общий поток : 1896 Кбит/сек
Программа кодирования : VirtualDubMod 1.5.10.2 (build 2540/release)
Библиотека кодирования : VirtualDubMod build 2540/release
Видео
Идентификатор : 0
Формат : MPEG-4 Visual
Профиль формата : Advanced Simple@L5
Параметр BVOP формата : 2
Параметр QPel формата : Нет
Параметр GMC формата : Без точки перехода
Параметр матрицы формата : Default (MPEG)
Идентификатор кодека : XVID
Идентификатор кодека/Подсказка : XviD
Продолжительность : 1 ч. 52 м.
Битрейт : 1695 Кбит/сек
Ширина : 704 пикселя
Высота : 368 пикселей
Соотношение сторон : 1,913
Частота кадров : 25,000 кадров/сек
Цветовое пространство : YUV
Субдискретизация насыщенности : 4:2:0
Битовая глубина : 8 бит
Тип развёртки : Прогрессивная
Метод сжатия : С потерями
Бит/(Пиксели*Кадры) : 0.262
Размер потока : 1,34 Гбайт (89%)
Библиотека кодирования : XviD 64
Аудио
Идентификатор : 1
Формат : AC-3
Формат/Информация : Audio Coding 3
Расширение режима : CM (complete main)
Параметр Endianness формата : Big
Идентификатор кодека : 2000
Продолжительность : 1 ч. 52 м.
Вид битрейта : Постоянный
Битрейт : 192 Кбит/сек
Каналы : 2 канала
Расположение каналов : Front: L R
Частота : 48,0 КГц
Битовая глубина : 16 бит
Метод сжатия : С потерями
Размер потока : 155 Мбайт (10%)
Выравнивание : Разделение по промежуткам
Продолжительность промежутка : 40 мс. (1,00 видеокадр)
Время предзагрузки промежутка : 500 мс.

Скриншот c названием фильма

Показать сообщения:    

Текущее время: 20-Сен 17:32

Часовой пояс: UTC - 1


Вы не можете начинать темы
Вы не можете отвечать на сообщения
Вы не можете редактировать свои сообщения
Вы не можете удалять свои сообщения
Вы не можете голосовать в опросах
Вы не можете прикреплять файлы к сообщениям
Вы не можете скачивать файлы

!ВНИМАНИЕ!
Сайт не предоставляет электронные версии произведений, а занимается лишь коллекционированием и каталогизацией ссылок, присылаемых и публикуемых на форуме нашими читателями. Если вы являетесь правообладателем какого-либо представленного материала и не желаете, чтобы ссылка на него находилась в нашем каталоге, свяжитесь с нами, и мы незамедлительно удалим ее. Файлы для обмена на трекере предоставлены пользователями сайта, и администрация не несет ответственности за их содержание. Просьба не заливать файлы, защищенные авторскими правами, а также файлы нелегального содержания!