Ивановский Торрент трекер
Яндекс.Погода
 

[Цитировать]
HUNTER

Оружие Победы
Год выпуска: 2010
Страна: Россия
Жанр: Документальный сериал
Продолжительность: 32 серии по 12 мин.
Перевод: Не требуется
Русские субтитры: нет
Режиссер: Крылья России
Описание: Студия "Крылья России" подготовила 36 серий из цикла "Оружие Победы". Каждый фильм цикла рассказывает о том или ином оружии, без которого победа советского народа над фашистской Германией была бы невозможной: стрелковое оружие, артиллерийские орудия, самолёты, танки, самоходные артиллерийские установки, подводные лодки, бронепоезда, ручные гранаты, автомобили.

Внимание! Раздача ведётся путём добавления новых серий

Внимание! Раздача ведётся путём добавления новых серий; при каждом добавлении создаётся новый торрент. Чтобы начать докачку новой серии, пользователям необходимо сделать следующее:
(1) остановить скачивание,
(2) удалить старый торрент у себя из клиента (старые серии удалять не надо),
(3) скачать новый торрент и запустить его у себя в клиенте вместо старого, при этом указать клиенту путь в старую папку куда и должно происходить скачивание новых серий.
Ваш клиент при этом должен произвести хеширование (проверку) старой папки (если не производит сам - помогите ему сделать это), и будет докачивать только те серии которых у вас ещё нет. Старые серии при этом не удаляются, а продолжают раздаваться!
Eсли вы уже удалили старые серии, то предотвратить повторную закачку старых серий можно, отжав галочку в соответствующих местах при запуске нового торрента. По возможности, желательно не удалять старые серии как можно дольше чтобы релизёр не столько продолжал раздавать старые серии, а смог сконцентрироваться на новых.
Сэмпл: http://www.sendspace.com/file/3a6kfm
качество: DVB
формат: MPG
Видео: MPEG Video, аноморф. 720х576, 4:3, 2358 Кбит/сек, 25 fps
Аудио: MPEG Audio, 160 Кбит/сек, 48 КГц, 2 канала

Список выпусков/серий

1. Зенитные орудия - Weapons of Victory_Anti-aircraft guns.mpeg 187.51 MB (196624384)
2. Противотанковые ружья Дегтярева и Симонова - Weapons of Victory_Anti-tank gun Degtyarev. Anti-tank rifle Simonov.mpeg 205.75 MB (215746560)
3. Противотанковые орудия калибра 45 и 57 мм. - Weapons of Victory_Antitank guns caliber 45 and 57 mm.mpeg 206.02 MB (216029184)
4. Бронепоезда - Weapons of Victory_Armoured train.mpeg 193.67 MB (203081728)
5. Линкоры - Weapons of Victory_Battleships.mpeg 232.97 MB (244287488)
6. Дивизионная пушка ЗИС-3 - Weapons of Victory_Divisional gun ZIS-3.mpeg 172.35 MB (180729856)
7. Истребитель И-16 - Weapons of Victory_Fighter I_16.mpeg 200.82 MB (210577408)
8. Истребитель ЛА-7 - Weapons of Victory_Fighter LA 7.mpeg 198.31 MB (207943680)
9. Автомобиль ГАЗ-67 - Weapons of Victory_GAZ 67.mpeg 222.92 MB (233750528)
10. Автомат ППШ - Weapons of Victory_Gun gun Shpagin (PCA).mpeg 247.18 MB (259188736)
11. Тяжелый бомбардировщик ПЕ-8 - Weapons of Victory_Heavy bomber Pe-8.mpeg 194.65 MB (204107776)
12. Тяжелый танк ИС-2 - Weapons of Victory_Heavy tank IS-2.mpeg 222.21 MB (233009152)
13. Тяжелый танк КВ-1 - Weapons of Victory_Heavy tank KV-1.mpeg 194.02 MB (203446272)
14. Бомбардировщик ИЛ-4 - Weapons of Victory_IL 4.mpeg 217.98 MB (228569088)
15. Пулемет Дегтярева - Weapons of Victory_Machine gun DP.mpeg 206.84 MB (216889344)
16. Пулемет Максима - Weapons of Victory_Maxim_machine_gun.mpeg 220.41 MB (231124992)
17. Ближний бомбардировщик СУ-2 - Weapons of Victory_Middle bomber Su-2.mpeg 202.37 MB (212203520)
18. Винтовка Мосина - Weapons of Victory_Mosin rifle.mpeg 228.75 MB (239863808)
19. Реактивная установка "Катюша" - Weapons of Victory_Multiple rocket launchers Katyusha.mpeg 224.91 MB (235843584)
20. Револьвер Наган и пистолет ТТ - Weapons of Victory_Nagant revolver and pistol TT.mpeg 202.38 MB (212219904)
21. Пикирующий бомбардировщик Пе-2 - Weapons of Victory_Pe-2.mpeg 177.15 MB (185759744)
22. Ночной бомбардировщик По-2 - Weapons of Victory_PO_2.mpeg 208.68 MB (218826752)
23. Тяжелая самоходная установка Су-152 - Weapons of Victory_SU 152.mpeg 235.26 MB (246695936)
24. Самоходная установка Су-76 - Weapons of Victory_SU-76.mpeg 215.44 MB (225908736)
25. Подводная лодка типа "М" - Weapons of victory_Submarine type_M.mpeg 197.61 MB (207218688)
26. Подводная лодка типа "К" - Weapons of Victory_Submarine_Katyusha.mpeg 194.08 MB (203513856)
27. Подводная лодка типа "Щ" - Weapons of Victory_The submarine type Щ.mpeg 233.00 MB (244326400)
28. Торпедные катера - Weapons of Victory_Torpedo boats.mpeg 213.45 MB (223819776)
29. Транспортный самолет Ли-2 - Weapons of Victory_Transport aircraft LI-2.mpeg 183.76 MB (192690176)
30. Грузовик Зис-5 - Weapons of Victory_Truck ZIS-5.mpeg 250.90 MB (263090176)
31. Истребитель Як-3 - Weapons of Victory_Yak 3.mpeg 192.64 MB (202002432)
32. Истребитель Як-9 - Weapons of Victory_Yak-9.mpeg 214.41 MB (224833536)

MediaInfo

Полное имя : Victory Weapon SU-76.mpeg
Формат : MPEG-PS
Размер файла : 215 Мбайт
Продолжительность : 11 м.
Режим общего битрейта : Переменный
Общий поток : 2570 Кбит/сек
Видео
Идентификатор : 224 (0xE0)
Формат : MPEG Video
Версия формата : Version 2
Профиль формата : Main@Main
Параметр BVOP формата : Да
Параметр матрицы формата : Выборочная
Продолжительность : 11 м.
Вид битрейта : Переменный
Битрейт : 2358 Кбит/сек
Максимальный битрейт : 3461 Кбит/сек
Ширина : 720 пикселей
Высота : 576 пикселей
Соотношение сторон : 4:3
Частота кадров : 25,000 кадров/сек
Стандарт вещания : PAL
Цветовое пространство : YUV
Субдискретизация насыщенности : 4:2:0
Битовая глубина : 8 бит
Тип развёртки : Чересстрочная
Порядок развёртки : Верхнее поле первое
Метод сжатия : С потерями
Бит/(Пиксели*Кадры) : 0.227
Размер потока : 198 Мбайт (92%)
Аудио
Идентификатор : 192 (0xC0)
Формат : MPEG Audio
Версия формата : Version 1
Профиль формата : Layer 2
Продолжительность : 11 м.
Вид битрейта : Постоянный
Битрейт : 160 Кбит/сек
Каналы : 2 канала
Частота : 48,0 КГц
Метод сжатия : С потерями
Задержка видео : -40 мс.
Размер потока : 13,4 Мбайт (6%)

Скриншоты



Показать сообщения:    

Текущее время: 14-Дек 15:22

Часовой пояс: UTC ± 0


Вы не можете начинать темы
Вы не можете отвечать на сообщения
Вы не можете редактировать свои сообщения
Вы не можете удалять свои сообщения
Вы не можете голосовать в опросах
Вы не можете прикреплять файлы к сообщениям
Вы не можете скачивать файлы

!ВНИМАНИЕ!
Сайт не предоставляет электронные версии произведений, а занимается лишь коллекционированием и каталогизацией ссылок, присылаемых и публикуемых на форуме нашими читателями. Если вы являетесь правообладателем какого-либо представленного материала и не желаете, чтобы ссылка на него находилась в нашем каталоге, свяжитесь с нами, и мы незамедлительно удалим ее. Файлы для обмена на трекере предоставлены пользователями сайта, и администрация не несет ответственности за их содержание. Просьба не заливать файлы, защищенные авторскими правами, а также файлы нелегального содержания!