Важное объявление!
У Нас Все раздачи мультитрекерные, при нуле пиров в релизах, можете смело вставать на закачку!
Статистика раздачи
Размер:     |    Зарегистрирован:     |    Скачан:     |   
Нет
 
     
 
 
Автор Сообщение

димитри37

Стаж:
4 года 5 месяцев
Сообщений:
1236

Репутация: 127

[+] [-]
Вне форума [Профиль] [ЛС]

Орден 3DThe Cloth
«The battle for your soul, has begun!»-
Страна: США
Жанр: фантастика, триллер, приключения
Год выпуска: 2012
Продолжительность: 01:30:39-Перевод: Любительский (двухголосый)
Субтитры: нет
Режиссер: Джастин Прайс / Justin Price
В ролях: Дэнни Трехо, Эрик Робертс, Рэйчел Брук Смит, Джастин Прайс, Роберт Миано, Ласситер Холмс, Кайлер Виллетт, Камерон Уайт, Стивен Брэнд, Перла Родригез, Линда Ку, Мако Вероника-Описание: Со времен краха Римской Империи церковь продолжала распространять христианство. Вере в Христа всегда противостояли мощные силы, для борьбы с которыми была основана секретная организация «Экзорцистиато». В ее недрах много веков назад и был создан Тайный Орден, именуемый «Покров». Орден продолжает действовать и в наши дни. С помощью проверенных веками обрядов экзорцизма его адепты противостоят демонам, пытающимся забрать души грешников сквозь приоткрывающиеся время от времени Врата ада. Недавно потерявший отца молодой парень Джейсон неожиданно сталкивается с необходимостью получить помощь таинственного Ордена...-

-Сценарий: Джастин Прайс / Justin Price
Продюсер: Дженнифер Л. Джордж / Jennifer L. George, Харольд Хардамон / Harold Hardamon, Чарльз Кис / Charles Keys, Линда Ку / Linda Khu, Эмбер Оливерас / Amber Oliveras
Оператор: Линда Ку / Linda Khu, Джастин Прайс / Justin Price
Композитор: Барт Сэмолис / Bart Samolis
Бюджет: $4 000 000-Качество: DVDRip
Контейнер: AVI
Видео: XviD, 720x304 (2.35:1), 2041 kbps, 23,976 fps, 0,389 bpp
Аудио: AC3 / 2.0 / 48 kHz / 192 kbps / 16 bit-

Media Info

General
Complete name : G:\Orden.2012.L2_DVDRip.avi
Format : AVI
Format/Info : Audio Video Interleave
File size : 1.42 GiB
Duration : 1h 30mn
Overall bit rate : 2 243 Kbps
Writing application : VirtualDubMod 1.5.10.3 | www.virtualdub-fr.org || (build 2550/release)
Writing library : VirtualDubMod build 2550/release
Video
ID : 0
Format : MPEG-4 Visual
Format profile : Advanced Simple@L5
Format settings, BVOP : 1
Format settings, QPel : No
Format settings, GMC : No warppoints
Format settings, Matrix : Default (H.263)
Codec ID : XVID
Codec ID/Hint : XviD
Duration : 1h 30mn
Bit rate : 2 042 Kbps
Width : 720 pixels
Height : 304 pixels
Display aspect ratio : 2.35:1
Frame rate : 23.976 fps
Color space : YUV
Chroma subsampling : 4:2:0
Bit depth : 8 bits
Scan type : Progressive
Compression mode : Lossy
Bits/(Pixel*Frame) : 0.389
Stream size : 1.29 GiB (91%)
Writing library : XviD 1.2.1 (UTC 2008-12-04)
Audio
ID : 1
Format : AC-3
Format/Info : Audio Coding 3
Mode extension : CM (complete main)
Codec ID : 2000
Duration : 1h 30mn
Bit rate mode : Constant
Bit rate : 192 Kbps
Channel(s) : 2 channels
Channel positions : Front: L R
Sampling rate : 48.0 KHz
Bit depth : 16 bits
Compression mode : Lossy
Stream size : 125 MiB (9%)
Alignment : Split accross interleaves
Interleave, duration : 42 ms (1.00 video frame)
Interleave, preload duration : 500 ms

Скриншот с названием фильма

Скриншоты

Показать сообщения:    

Текущее время: Сегодня 08:58

Часовой пояс: GMT



Вы не можете начинать темы
Вы не можете отвечать на сообщения
Вы не можете редактировать свои сообщения
Вы не можете удалять свои сообщения
Вы не можете голосовать в опросах
Вы не можете прикреплять файлы к сообщениям
Вы не можете скачивать файлы