Ивановский Торрент трекер
Яндекс.Погода
Статистика раздачи
Размер:  5.52 GB   |    Зарегистрирован:  2 года 2 месяца   |    Скачан:  0 раз

Полного источника не было: Никогда

 
     
 
 
 

[Цитировать]
HUNTER

Операция Самум / Operacja Samum- Страна: Польша
Жанр: Драма, боевик
Год выпуска: 1999
Продолжительность: 01:28:28-Перевод: Профессиональный (многоголосый закадровый)
Cубтитры: польский хардсаб на не польскую речь
Оригинальная аудиодорожка: Польский, английский, арабский, испанский, русский, курдский-Режиссер: Владислав Пасиковски / Władysław Pasikowski
В ролях: Богуслав Линда, Дмитрий Шевченко, Михал Гадомски, Кшиштоф Глёбиш, Тадеуш Хук, Марек Кондрат, Кристоф Конрад, Анна Корч, Эдвард Линде-Любашенко, Олаф Любашенко- | Релиз: -Описание: 1990 год. Иракские власти арестовывают польского инженера, сына ушедшего в отставку лучшего офицера польской разведки Майера. В то же время ЦРУ и польская служба контрразведки планируют на территории Ирака секретную операцию по обнаружению и уничтожения крупнейшей группировки иракских террористов. Но для выполнения этого плана необходим человек, который прекрасно бы знал Ирак и был способен проникнуть в тайный лагерь экстремистов. Есть только один такой человек. И чтобы спасти своего сына, Майер соглашается принять участие в нелегальной и смертельно опасной операции в Ираке.-Доп. информация:
- За исходную русскую дорожку спасибо Lenape и Нордер.
- Запись фильма со спутниковой трансляции и работа со звуком - xfiles.
-Семпл: http://sendfile.su/1156692-Тип релиза: HDTV 1080i
Контейнер: TS
Видео: 1920x1080 (16:9), 25.000 fps, AVC, ~7719 kbps, 0.149 bits/pixel
Аудио 1: Русский, 48.0 KHz, AC3, 1 ch, 192 kbps
Аудио 2: Polish, 48.0 KHz, AC3, 2 ch, 192 kbps
Аудио 3: Polish, 48.0 KHz, AC3, 6 ch, 384 kbps

MediaInfo

GeneralID : 1 (0x1)Complete name : Operacja Samum 1999 TVP HD 1080i.rus.pol.tsFormat : MPEG-TSFile size : 5.52 GiBDuration : 1h 28mnOverall bit rate mode : VariableOverall bit rate : 8 937 KbpsMaximum Overall bit rate : 35.5 Mbps
VideoID : 4113 (0x1011)Menu ID : 1 (0x1)Format : AVCFormat/Info : Advanced Video CodecFormat profile : High@L4Format settings, CABAC : YesFormat settings, ReFrames : 4 framesCodec ID : 27Duration : 1h 28mnBit rate mode : VariableBit rate : 7 719 KbpsMaximum bit rate : 40.0 MbpsWidth : 1 920 pixelsHeight : 1 080 pixelsDisplay aspect ratio : 16:9Frame rate : 25.000 fpsColor space : YUVChroma subsampling : 4:2:0Bit depth : 8 bitsScan type : InterlacedScan order : Top Field FirstBits/(Pixel*Frame) : 0.149Stream size : 4.77 GiB (86%)Color range : LimitedColor primaries : BT.709Transfer characteristics : BT.709Matrix coefficients : BT.709
Audio #1ID : 4352 (0x1100)Menu ID : 1 (0x1)Format : AC-3Format/Info : Audio Coding 3Mode extension : CM (complete main)Format settings, Endianness : BigCodec ID : 129Duration : 1h 28mnBit rate mode : ConstantBit rate : 192 KbpsChannel(s) : 1 channelChannel positions : Front: CSampling rate : 48.0 KHzCompression mode : LossyStream size : 122 MiB (2%)Language : Russian
Audio #2ID : 4353 (0x1101)Menu ID : 1 (0x1)Format : AC-3Format/Info : Audio Coding 3Mode extension : CM (complete main)Format settings, Endianness : BigCodec ID : 129Duration : 1h 28mnBit rate mode : ConstantBit rate : 192 KbpsChannel(s) : 2 channelsChannel positions : Front: L RSampling rate : 48.0 KHzCompression mode : LossyStream size : 122 MiB (2%)Language : Polish
Audio #3ID : 4354 (0x1102)Menu ID : 1 (0x1)Format : AC-3Format/Info : Audio Coding 3Mode extension : CM (complete main)Format settings, Endianness : BigCodec ID : 129Duration : 1h 28mnBit rate mode : ConstantBit rate : 384 KbpsChannel(s) : 6 channelsChannel positions : Front: L C R, Side: L R, LFESampling rate : 48.0 KHzCompression mode : LossyStream size : 243 MiB (4%)Language : Polish
[iv-torrents.ru].t49806.torrent
Торрент: Зарегистрирован [ 2015-09-22 16:18 ] · A663668BED93EA5139D84A07BA1B95D41629F67A

Скачать .torrent

Скачать

28 KB

Статус: проверено
Скачан: 0 раз
Размер: 5.52 GB
terms.php


Показать сообщения:    

Текущее время: 14-Дек 19:06

Часовой пояс: UTC ± 0


Вы не можете начинать темы
Вы не можете отвечать на сообщения
Вы не можете редактировать свои сообщения
Вы не можете удалять свои сообщения
Вы не можете голосовать в опросах
Вы не можете прикреплять файлы к сообщениям
Вы можете скачивать файлы

!ВНИМАНИЕ!
Сайт не предоставляет электронные версии произведений, а занимается лишь коллекционированием и каталогизацией ссылок, присылаемых и публикуемых на форуме нашими читателями. Если вы являетесь правообладателем какого-либо представленного материала и не желаете, чтобы ссылка на него находилась в нашем каталоге, свяжитесь с нами, и мы незамедлительно удалим ее. Файлы для обмена на трекере предоставлены пользователями сайта, и администрация не несет ответственности за их содержание. Просьба не заливать файлы, защищенные авторскими правами, а также файлы нелегального содержания!