Важное объявление!
У Нас Все раздачи мультитрекерные, при нуле пиров в релизах, можете смело вставать на закачку!
Статистика раздачи
Размер:     |    Зарегистрирован:     |    Скачан:     |   
Нет
 
     
 
 
Автор Сообщение

Shalun

Стаж:
5 лет 1 месяц
Сообщений:
802

Репутация: 123

[+] [-]
Вне форума [Профиль] [ЛС]

-Операция «Арго» / Argo [Extended Cut]-
Информация о фильме
Название: Операция «Арго»
Оригинальное название: Argo [Extended Cut]
Год выхода: 2012
Жанр: триллер, драма
Режиссер: Бен Аффлек
В ролях: Бен Аффлек, Брайан Крэнстон, Алан Аркин, Джон Гудмен, Виктор Гарбер, Тейт Донован, Клеа Дюваль, Скут МакНэйри, Рори Кокрейн, Кристофер Денхам
О фильме: 4 ноября 1979 г. революция в Иране достигает своего апогея, исламисты штурмуют посольство США в Тегеране и берут в заложники 52 американца. Но в этом хаосе шестерым удается ускользнуть и найти прибежище в доме канадского посла. Понимая, что их обнаружение и, вероятнее всего, убийство - всего лишь вопрос времени, Тони Мендес, специалист ЦРУ по тайному вывозу людей из страны, предлагает рискованный план безопасной эвакуации. План столь невероятен, что такое бывает только в кино.
Доп. информация: Расширенная версия фильма (длиннее театральной примерно на 9 минут).

Файл
Качество: BDRip [1080p]
Видео: MPEG-4 AVC, 1920x800 at 23.976 fps, ~15100 kbps avg
Аудио:
Аудио №1: Russian: 48 kHz, DTS 5.1, ~1536.00 kbps avg |Одноголосый закадровый, А. Гаврилов|
Аудио №2: Russian: 48 kHz, DTS 5.1, ~1536.00 kbps avg |Одноголосый закадровый, Ю. Живов|
Аудио №3: Russian: 48 kHz, DTS 5.1, ~1536.00 kbps avg |Одноголосый закадровый, Ю. Сербин|
Аудио №4: English: 48 kHz, DTS 5.1, ~1536.00 kbps avg
Продолжительность: 02:09:36
Перевод: Профессиональный (одноголосый)
Субтитры: Russian, English

MediaInfo

Общее
Уникальный идентификатор : 206438134439309264540392323078457417402 (0x9B4E89D9B1E41DA4A577F4A439945EBA)
Полное имя : Argo.Extended.Cut.2012.BluRay.1080p.3xRus.Eng.HDCLUB.mkv
Формат : Matroska
Версия формата : Version 4 / Version 2
Размер файла : 19,1 Гбайт
Продолжительность : 2 ч. 9 м.
Общий поток : 21,1 Мбит/сек
Название фильма : Argo (2012) - Release for HDCLUB
Дата кодирования : UTC 2013-04-23 10:50:53
Программа кодирования : mkvmerge v6.1.0 ('Old Devil') built on Mar 2 2013 14:32:37
Библиотека кодирования : libebml v1.3.0 + libmatroska v1.4.0
Attachment : Yes
Видео
Идентификатор : 1
Формат : AVC
Формат/Информация : Advanced Video Codec
Профиль формата : High@L4.1
Параметр CABAC формата : Да
Параметр ReFrames формата : 5 кадров
Идентификатор кодека : V_MPEG4/ISO/AVC
Продолжительность : 2 ч. 9 м.
Битрейт : 15,1 Мбит/сек
Ширина : 1920 пикселей
Высота : 800 пикселей
Соотношение сторон : 2,40:1
Режим частоты кадров : Постоянный
Частота кадров : 23,976 кадра/сек
Цветовое пространство : YUV
Субдискретизация насыщенности : 4:2:0
Битовая глубина : 8 бит
Тип развёртки : Прогрессивная
Бит/(Пиксели*Кадры) : 0.410
Размер потока : 13,3 Гбайт (69%)
Заголовок : Release for HDCLUB
Библиотека кодирования : x264 core 130 r2274+704+40 57838ff tMod+MixAQ [8-bit@all X86_64]
Настройки программы : cabac=1 / ref=5 / deblock=1:-3:-3 / analyse=0x3:0x133 / me=tesa / subme=10 / psy=1 / fade_compensate=0.00 / psy_rd=1.05:0.05 / mixed_ref=1 / me_range=32 / chroma_me=1 / trellis=2 / 8x8dct=1 / cqm=0 / deadzone=21,11 / fast_pskip=0 / chroma_qp_offset=-3 / threads=12 / lookahead_threads=2 / sliced_threads=0 / nr=0 / decimate=0 / interlaced=0 / bluray_compat=0 / constrained_intra=0 / fgo=0 / bframes=8 / b_pyramid=2 / b_adapt=2 / b_bias=0 / direct=1 / weightb=1 / open_gop=0 / weightp=2 / keyint=250 / keyint_min=23 / scenecut=40 / intra_refresh=0 / rc_lookahead=40 / rc=2pass / mbtree=0 / bitrate=15100 / ratetol=1.0 / qcomp=0.75 / qpmin=0 / qpmax=69 / qpstep=4 / cplxblur=20.0 / qblur=0.5 / vbv_maxrate=50000 / vbv_bufsize=50000 / nal_hrd=none / ip_ratio=1.20 / pb_ratio=1.30 / aq=1:0.80 / aq-sensitivity=10.00 / aq-ifactor=1.00 / aq-pfactor=1.00 / aq-bfactor=1.00 / aq2=0
Язык : English
Default : Да
Forced : Нет
Аудио #1
Идентификатор : 2
Формат : DTS
Формат/Информация : Digital Theater Systems
Режим : 16
Параметр Endianness формата : Big
Идентификатор кодека : A_DTS
Продолжительность : 2 ч. 9 м.
Вид битрейта : Постоянный
Битрейт : 1509 Кбит/сек
Каналы : 6 каналов
Расположение каналов : Front: L C R, Side: L R, LFE
Частота : 48,0 КГц
Битовая глубина : 24 бит
Метод сжатия : С потерями
Размер потока : 1,37 Гбайт (7%)
Заголовок : DTS 5.1 @ 1536 kbps - VO, Serbin
Язык : Russian
Default : Да
Forced : Нет
Аудио #2
Идентификатор : 3
Формат : DTS
Формат/Информация : Digital Theater Systems
Режим : 16
Параметр Endianness формата : Big
Идентификатор кодека : A_DTS
Продолжительность : 2 ч. 9 м.
Вид битрейта : Постоянный
Битрейт : 1509 Кбит/сек
Каналы : 6 каналов
Расположение каналов : Front: L C R, Side: L R, LFE
Частота : 48,0 КГц
Битовая глубина : 24 бит
Метод сжатия : С потерями
Размер потока : 1,37 Гбайт (7%)
Заголовок : DTS 5.1 @ 1536 kbps - VO, Gavrilov
Язык : Russian
Default : Нет
Forced : Нет
Аудио #3
Идентификатор : 4
Формат : DTS
Формат/Информация : Digital Theater Systems
Режим : 16
Параметр Endianness формата : Big
Идентификатор кодека : A_DTS
Продолжительность : 2 ч. 9 м.
Вид битрейта : Постоянный
Битрейт : 1509 Кбит/сек
Каналы : 6 каналов
Расположение каналов : Front: L C R, Side: L R, LFE
Частота : 48,0 КГц
Битовая глубина : 24 бит
Метод сжатия : С потерями
Размер потока : 1,37 Гбайт (7%)
Заголовок : DTS 5.1 @ 1536 kbps - VO, Jivov
Язык : Russian
Default : Нет
Forced : Нет
Аудио #4
Идентификатор : 5
Формат : DTS
Формат/Информация : Digital Theater Systems
Режим : 16
Параметр Endianness формата : Big
Идентификатор кодека : A_DTS
Продолжительность : 2 ч. 9 м.
Вид битрейта : Постоянный
Битрейт : 1509 Кбит/сек
Каналы : 6 каналов
Расположение каналов : Front: L C R, Side: L R, LFE
Частота : 48,0 КГц
Битовая глубина : 24 бит
Метод сжатия : С потерями
Размер потока : 1,37 Гбайт (7%)
Заголовок : DTS 5.1 @ 1536 kbps
Язык : English
Default : Нет
Forced : Нет
Текст #1
Идентификатор : 6
Формат : UTF-8
Идентификатор кодека : S_TEXT/UTF8
Идентификатор кодека/Информация : UTF-8 Plain Text
Язык : Russian
Default : Нет
Forced : Нет
Текст #2
Идентификатор : 7
Формат : UTF-8
Идентификатор кодека : S_TEXT/UTF8
Идентификатор кодека/Информация : UTF-8 Plain Text
Язык : English
Default : Нет
Forced : Нет
Меню
00:00:00.000 : en:00:00:00.000
00:12:39.717 : en:00:12:39.717
00:22:15.459 : en:00:22:15.459
00:33:33.345 : en:00:33:33.345
00:50:10.299 : en:00:50:10.299
00:58:35.262 : en:00:58:35.262
01:08:33.776 : en:01:08:33.776
01:17:43.242 : en:01:17:43.242
01:28:20.545 : en:01:28:20.545
01:39:18.160 : en:01:39:18.160
01:48:04.895 : en:01:48:04.895
02:00:48.116 : en:02:00:48.116

Скриншоты






_________________
Показать сообщения:    

Текущее время: Сегодня 22:38

Часовой пояс: GMT



Вы не можете начинать темы
Вы не можете отвечать на сообщения
Вы не можете редактировать свои сообщения
Вы не можете удалять свои сообщения
Вы не можете голосовать в опросах
Вы не можете прикреплять файлы к сообщениям
Вы не можете скачивать файлы