Ивановский Торрент трекер
Яндекс.Погода
 

[Цитировать]
HUNTER

-Опасный метод / A Dangerous Method-Страна: Германия, Канада, Великобритания, Швейцария
Жанр: драма, биография
Год выпуска: 2011
Продолжительность: 01:39:40-Перевод: Профессиональный (дублированный)
Перевод 2: Профессиональный (многоголосый закадровый) 1 Канал
Перевод 3: Авторский (одноголосый закадровый) Юрий Сербин
Cубтитры: русские, английские
Оригинальная аудиодорожка: английский-Режиссер: Дэвид Кроненберг / David Cronenberg
В ролях: Вигго Мортенсен, Кира Найтли, Майкл Фассбендер, Венсан Кассель, Сара Гэйдон, Андре Хеннике, Арндт Шверинг-Сонри, Миньон Реме, Мареике Карьер-Описание: Сюжет закручен вокруг персон основателей психоанализа Карла Густава Юнга и Зигмунда Фрейда и их сложных взаимоотношений с умной и красивой пациенткой Сабиной Шпильрейн-Сэмпл: https://yadi.sk/i/XitTDrm_q7zu3-Тип релиза: BDRemux 1080p
Контейнер: MKV
Видео: MPEG-4 AVC Video 28780 kbps 1080p / 23,976 fps / 16:9 / High Profile 4.1
Аудио: Russian Dolby Digital Audio 640 kbps 5.1 / 48 kHz
Аудио 2: Russian MP2 224 kbps 2.0 / 48 kHz
Аудио 3: Russian DTS-HD Master Audio 3414 kbps 5.1 / 48 kHz / 3414 kbps / 24-bit (DTS Core: 5.1 / 48 kHz / 1536 kbps / 24-bit)
Аудио 4: English DTS-HD Master Audio 3174 kbps 5.1 / 48 kHz / 3174 kbps / 24-bit (DTS Core: 5.1 / 48 kHz / 768 kbps / 24-bit)
Формат субтитров: softsub (SRT)

MI

GeneralUnique ID : 183372696574439499913250602606816333947 (0x89F44BF699B958599112690C7397107B)Complete name : P:\[По режиссерам]\+ David Cronenberg\Опасный метод (2011. A Dangerous Method).mkvFormat : MatroskaFormat version : Version 2File size : 25.2 GiBDuration : 1h 39mnOverall bit rate mode : VariableOverall bit rate : 36.2 MbpsMovie name : Release for RuTrackerEncoded date : UTC 2016-03-12 22:03:45Writing application : mkvmerge v4.9.1 ('Ich will') сборка от Jul 11 2011 23:53:15Writing library : libebml v1.2.1 + libmatroska v1.1.1Cover : YesAttachments : cover.jpg
VideoID : 1Format : AVCFormat/Info : Advanced Video CodecFormat profile : High@L4.1Format settings, CABAC : YesFormat settings, ReFrames : 3 framesCodec ID : V_MPEG4/ISO/AVCDuration : 1h 39mnBit rate mode : VariableMaximum bit rate : 35.0 MbpsWidth : 1 920 pixelsHeight : 1 080 pixelsDisplay aspect ratio : 16:9Frame rate mode : ConstantFrame rate : 23.976 (24000/1001) fpsStandard : NTSCColor space : YUVChroma subsampling : 4:2:0Bit depth : 8 bitsScan type : ProgressiveLanguage : EnglishDefault : YesForced : NoColor range : LimitedColor primaries : BT.709Transfer characteristics : BT.709Matrix coefficients : BT.709
Audio #1ID : 2Format : AC-3Format/Info : Audio Coding 3Mode extension : CM (complete main)Format settings, Endianness : BigCodec ID : A_AC3Duration : 1h 39mnBit rate mode : ConstantBit rate : 640 KbpsChannel(s) : 6 channelsChannel positions : Front: L C R, Side: L R, LFESampling rate : 48.0 KHzFrame rate : 31.250 fps (1536 spf)Compression mode : LossyStream size : 457 MiB (2%)Title : ДубляжLanguage : RussianDefault : YesForced : No
Audio #2ID : 3Format : MPEG AudioFormat version : Version 1Format profile : Layer 2Codec ID : A_MPEG/L2Codec ID/Hint : MP2Duration : 1h 39mnBit rate mode : ConstantBit rate : 224 KbpsChannel(s) : 2 channelsSampling rate : 44.1 KHzCompression mode : LossyStream size : 160 MiB (1%)Title : MVO [1 канал]Language : RussianDefault : NoForced : No
Audio #3ID : 4Format : DTSFormat/Info : Digital Theater SystemsFormat profile : MA / CoreMode : 16Format settings, Endianness : BigCodec ID : A_DTSDuration : 1h 39mnBit rate mode : Variable / ConstantBit rate : Unknown / 1 509 KbpsChannel(s) : 6 channelsChannel positions : Front: L C R, Side: L R, LFESampling rate : 48.0 KHzFrame rate : 93.750 fps (512 spf)Bit depth : 24 bitsCompression mode : Lossless / LossyTitle : Юрий СербинLanguage : RussianDefault : NoForced : No
Audio #4ID : 5Format : DTSFormat/Info : Digital Theater SystemsFormat profile : MA / CoreMode : 16Format settings, Endianness : BigCodec ID : A_DTSDuration : 1h 39mnBit rate mode : Variable / ConstantBit rate : Unknown / 768 KbpsChannel(s) : 6 channelsChannel positions : Front: L C R, Side: L R, LFESampling rate : 48.0 KHzFrame rate : 93.750 fps (512 spf)Bit depth : 24 bitsCompression mode : Lossless / LossyLanguage : EnglishDefault : NoForced : No
Text #1ID : 6Format : UTF-8Codec ID : S_TEXT/UTF8Codec ID/Info : UTF-8 Plain TextLanguage : RussianDefault : NoForced : No
Text #2ID : 7Format : UTF-8Codec ID : S_TEXT/UTF8Codec ID/Info : UTF-8 Plain TextLanguage : EnglishDefault : NoForced : No
Menu00:00:00.000 : en:00:00:00.00000:05:09.309 : en:00:05:09.30900:09:44.959 : en:00:09:44.95900:15:35.893 : en:00:15:35.89300:21:32.124 : en:00:21:32.12400:25:36.326 : en:00:25:36.32600:30:37.252 : en:00:30:37.25200:36:42.117 : en:00:36:42.11700:41:39.914 : en:00:41:39.91400:46:20.444 : en:00:46:20.44400:51:46.061 : en:00:51:46.06100:57:23.857 : en:00:57:23.85701:01:01.700 : en:01:01:01.70001:06:34.991 : en:01:06:34.99101:11:35.750 : en:01:11:35.75001:16:48.854 : en:01:16:48.85401:20:45.966 : en:01:20:45.96601:27:12.352 : en:01:27:12.35201:31:59.055 : en:01:31:59.05501:35:39.525 : en:01:35:39.525

Скриншоты




Зеркало



Цитата:
  • За дорожку Сербина спасибо Volshebnik. Перевод выкуплен в рамках сервиса "Озвучивание". Спонсоры: e180: sir, axl-dr, Ramis, Larry, carnivale, kabukiman, zeleniy, DB73 HDClub: Loki1982, Dervish, betserv.
  • Дубляж с русского BD.
  • Озвучка первого канала - запись звука и синхронизация vedigo.
  • Ремукс собран на основе немецкого трансфера.
  • Сохранены оригинальные чаптеры как на Blu-ray.
Показать сообщения:    

Текущее время: 19-Окт 06:23

Часовой пояс: UTC - 1


Вы не можете начинать темы
Вы не можете отвечать на сообщения
Вы не можете редактировать свои сообщения
Вы не можете удалять свои сообщения
Вы не можете голосовать в опросах
Вы не можете прикреплять файлы к сообщениям
Вы не можете скачивать файлы

!ВНИМАНИЕ!
Сайт не предоставляет электронные версии произведений, а занимается лишь коллекционированием и каталогизацией ссылок, присылаемых и публикуемых на форуме нашими читателями. Если вы являетесь правообладателем какого-либо представленного материала и не желаете, чтобы ссылка на него находилась в нашем каталоге, свяжитесь с нами, и мы незамедлительно удалим ее. Файлы для обмена на трекере предоставлены пользователями сайта, и администрация не несет ответственности за их содержание. Просьба не заливать файлы, защищенные авторскими правами, а также файлы нелегального содержания!