Ивановский Торрент трекер
Яндекс.Погода
 

[Цитировать]
HUNTER

Опасные повороты / Dangerous Curves
Страна: США
Жанр: комедия
Год выпуска: 1988
Продолжительность: 01:33:06
Перевод: Авторский (одноголосый закадровый) Павел Санаев
Cубтитры: английские
Оригинальная аудиодорожка: английский
Режиссер: Дэвид Льюис / David Lewis
В ролях: Тейт Донован, Грант Хеслов, Даниэль фон Цернек, Валери Брейман, Карен Линн Скотт, Роберт Романус, Роберт Клейн, Роберт Стэк, Лесли Нильсен, Элизабет Эшли...
Описание: Студент Чак твердо решил посвятить себя финансам, а его сосед по общежитию Уолли — женскому полу. Чак вызвался перегнать для дочери главы престижной фирмы новенький «порше» и обеспечить себе таким образом место на этой фирме.
Уолли уговорил Чака сделать небольшой крюк в Сан-Диего на конкурс красоты, где «порше» украли и объявили главным призом в конкурсе. Ребята знакомятся с двумя юными претендентками, в которых, по ходу дела, по уши влюбляются, и вместе разрабатывают мастерский план не только возвращения украденной машины, но и подставки вора.
А в конце приключений героев ждет главный приз: Чак понимает, что женская красота привлекательнее карьеры финансиста, а до Уолли доходит, что лучше найти одну истинную любовь, чем постоянно гоняться за несколькимисразу.
Доп. информация: За оцифровку перевода Санаева спасибо Fikaloid. Синхронизация звука - Dreven.
Сэмпл: http://sendfile.su/1272804
Тип релиза: WEB-DL 1080p
Контейнер: MKV
Видео: 1920x1080 (16:9), 23.976 fps, AVC, ~13.7 Mbps, 0.275 bits/pixel
Аудио 1: Russian, 48.0 KHz, AC3, 2 ch, 192 Kbps - Павел Санаев
Аудио 2: English, 48.0 KHz, AC3+, 2 ch, 224 Kbps

MediaInfo

General
Unique ID : 235658995042639301617178900107502469882 (0xB14A458271E94A29A47B85560F1AC2FA)
Complete name : C:\Dangerous Curves. WEB-DL 1080p.mkv
Format : Matroska
Format version : Version 4 / Version 2
File size : 9.34 GiB
Duration : 1h 33mn
Overall bit rate mode : Variable
Overall bit rate : 14.4 Mbps
Encoded date : UTC 2016-10-08 20:32:50
Writing application : mkvmerge v9.4.2 ('So High') 64bit
Writing library : libebml v1.3.4 + libmatroska v1.4.5
Video
ID : 1
Format : AVC
Format/Info : Advanced Video Codec
Format profile : High@L4
Format settings, CABAC : Yes
Format settings, ReFrames : 4 frames
Codec ID : V_MPEG4/ISO/AVC
Duration : 1h 33mn
Bit rate mode : Variable
Bit rate : 13.9 Mbps
Maximum bit rate : 15.0 Mbps
Width : 1 920 pixels
Height : 1 080 pixels
Display aspect ratio : 16:9
Frame rate mode : Constant
Frame rate : 23.976 (24000/1001) fps
Color space : YUV
Chroma subsampling : 4:2:0
Bit depth : 8 bits
Scan type : Progressive
Bits/(Pixel*Frame) : 0.280
Stream size : 9.07 GiB (97%)
Writing library : x264 core 148 r2623 d5b2374
Encoding settings : cabac=1 / ref=4 / deblock=1:-1:-1 / analyse=0x3:0x133 / me=umh / subme=9 / psy=1 / psy_rd=1.00:0.15 / mixed_ref=1 / me_range=24 / chroma_me=1 / trellis=2 / 8x8dct=1 / cqm=0 / deadzone=21,11 / fast_pskip=1 / chroma_qp_offset=-3 / threads=34 / lookahead_threads=5 / sliced_threads=0 / nr=150 / decimate=1 / interlaced=0 / bluray_compat=0 / constrained_intra=0 / bframes=8 / b_pyramid=2 / b_adapt=2 / b_bias=0 / direct=3 / weightb=1 / open_gop=0 / weightp=2 / keyint=120 / keyint_min=61 / scenecut=0 / intra_refresh=0 / rc_lookahead=120 / rc=crf / mbtree=1 / crf=18.0 / qcomp=0.60 / qpmin=0 / qpmax=69 / qpstep=4 / vbv_maxrate=15000 / vbv_bufsize=31250 / crf_max=0.0 / nal_hrd=vbr / filler=0 / ip_ratio=1.40 / aq=3:1.00
Language : English
Default : Yes
Forced : No
Color range : Limited
Color primaries : BT.709
Transfer characteristics : BT.709
Matrix coefficients : BT.709
Audio #1
ID : 2
Format : AC-3
Format/Info : Audio Coding 3
Mode extension : CM (complete main)
Format settings, Endianness : Big
Codec ID : A_AC3
Duration : 1h 33mn
Bit rate mode : Constant
Bit rate : 192 Kbps
Channel(s) : 2 channels
Channel positions : Front: L R
Sampling rate : 48.0 KHz
Frame rate : 31.250 fps (1536 spf)
Compression mode : Lossy
Stream size : 128 MiB (1%)
Title : Павел Санаев
Language : Russian
Default : Yes
Forced : No
Audio #2
ID : 3
Format : E-AC-3
Format/Info : Audio Coding 3
Format settings, Endianness : Big
Codec ID : A_EAC3
Duration : 1h 33mn
Bit rate mode : Constant
Bit rate : 224 Kbps
Channel(s) : 2 channels
Channel positions : Front: L R
Sampling rate : 48.0 KHz
Frame rate : 187.500 fps (256 spf)
Compression mode : Lossy
Stream size : 149 MiB (2%)
Language : English
Default : No
Forced : No
Text
ID : 4
Format : UTF-8
Codec ID : S_TEXT/UTF8
Codec ID/Info : UTF-8 Plain Text
Duration : 1h 32mn
Bit rate : 77 bps
Count of elements : 1868
Stream size : 52.9 KiB (0%)
Language : English
Default : No
Forced : No

Скриншоты

0 человек читают эту тему: 0 пользователей, 0 скрытых пользователей, 0 гостей

Показать сообщения:    

Текущее время: 23-Авг 03:32

Часовой пояс: UTC - 1


Вы не можете начинать темы
Вы не можете отвечать на сообщения
Вы не можете редактировать свои сообщения
Вы не можете удалять свои сообщения
Вы не можете голосовать в опросах
Вы не можете прикреплять файлы к сообщениям
Вы не можете скачивать файлы

!ВНИМАНИЕ!
Сайт не предоставляет электронные версии произведений, а занимается лишь коллекционированием и каталогизацией ссылок, присылаемых и публикуемых на форуме нашими читателями. Если вы являетесь правообладателем какого-либо представленного материала и не желаете, чтобы ссылка на него находилась в нашем каталоге, свяжитесь с нами, и мы незамедлительно удалим ее. Файлы для обмена на трекере предоставлены пользователями сайта, и администрация не несет ответственности за их содержание. Просьба не заливать файлы, защищенные авторскими правами, а также файлы нелегального содержания!