Важное объявление!
У Нас Все раздачи мультитрекерные, при нуле пиров в релизах, можете смело вставать на закачку!
Статистика раздачи
Размер:     |    Зарегистрирован:     |    Скачан:     |   
Нет
 
     
 
 
Автор Сообщение

HUNTER

Стаж:
5 лет
Сообщений:
68415

Репутация: 101

[+] [-]
Вне форума [Профиль] [ЛС]

Опасная иллюзия / The Necessary Death of Charlie Countryman-
Год выпуска: 2013
Выпущено: США, Румыния
Жанр: триллер, криминал, боевик, драма, мелодрама, комедия
Продолжительность: 01:43:36
Перевод: Профессиональный (полное дублирование) BluRay RUS
Оригинальная звуковая дорожка: English
Субтитры: Russian, English-Режиссер: Фредрик Бонд / Fredrik Bond
В ролях: Шайа ЛаБаф, Эван Рэйчел Вуд, Мадс Миккельсен, Тиль Швайгер, Руперт Гринт, Джеймс Бакли, Ион Карамитру, Винсент Д’Онофрио, Мелисса Лео, Джон Хёрт
О фильме: Чарли Кантримен живет в США, спасаясь с помощью галлюциногенных веществ от скучной работы и тоски ничем не примечательного существования. Во время очередного наркотического трипа Чарли видит свою покойную мать, которая настоятельно рекомендует сыну съездить в Бухарест. Он не смеет ослушаться маму — и там герой фильма знакомится с девушкой своей мечты, а заодно — с местными криминальными порядками, из-за чего рискует в скором времени расстаться с жизнью.-EbP!
Релиз:
Источник: 1080p Blu-ray AVC TrueHD 5.1-PublicHD
Тип релиза: BDRip 1080p
Формат: MKV
Видео: 1920x1080 at 23.976 fps, x264, x264, CRF, L4.1 , ~ 14 000 kbps avg
Аудио #01: Russian: 48 kHz, DTS, 3/2 (L,C,R,l,r) + LFE ch, ~1510.00 kbps avg |Дубляж, BluRay RUS|
Аудио #02: Ukrainian: 48 kHz, AC3, 2/0 (L,R) ch, ~192.00 kbps avg |Многоголосый закадровый, 1+1|
Аудио #03: English: 48 kHz, AC3, 3/2 (L,C,R,l,r) + LFE ch, ~640.00 kbps avg
Семпл-
-

mInfo

Полное имя : D:\The.Necessary.Death.of.Charlie.Countryman.2013.1080p.BluRay.Rus.Ukr.Eng.HDCLUB.mkv
Формат : Matroska
Версия формата : Version 2
Размер файла : 12,0 Гбайт
Продолжительность : 1 ч. 43 м.
Общий поток : 16,6 Мбит/сек
Название фильма : The Necessary Death of Charlie Countryman (2013) - Release for HDCLUB
Дата кодирования : UTC 2016-02-11 16:48:01
Программа кодирования : mkvmerge v5.7.0 ('The Whirlwind') built on Jul 8 2012 20:08:51
Библиотека кодирования : libebml v1.2.3 + libmatroska v1.3.0
Видео
Идентификатор : 1
Формат : AVC
Формат/Информация : Advanced Video Codec
Профиль формата : High@L4.1
Параметр CABAC формата : Да
Параметр ReFrames формата : 4 кадра
Идентификатор кодека : V_MPEG4/ISO/AVC
Продолжительность : 1 ч. 43 м.
Битрейт : 13,9 Мбит/сек
Ширина : 1920 пикселей
Высота : 1080 пикселей
Соотношение сторон : 16:9
Режим частоты кадров : Постоянный
Частота кадров : 23,976 кадра/сек
Цветовое пространство : YUV
Субдискретизация насыщенности : 4:2:0
Битовая глубина : 8 бит
Тип развёртки : Прогрессивная
Бит/(Пиксели*Кадры) : 0.280
Размер потока : 10,1 Гбайт (84%)
Библиотека кодирования : x264 core 140 r2377 1ca7bb9
Настройки программы : cabac=1 / ref=4 / deblock=1:-3:-3 / analyse=0x3:0x113 / me=umh / subme=10 / psy=1 / psy_rd=0.95:0.00 / mixed_ref=1 / me_range=32 / chroma_me=1 / trellis=2 / 8x8dct=1 / cqm=0 / deadzone=21,11 / fast_pskip=0 / chroma_qp_offset=-2 / threads=12 / lookahead_threads=2 / sliced_threads=0 / nr=0 / decimate=0 / interlaced=0 / bluray_compat=0 / constrained_intra=0 / bframes=8 / b_pyramid=2 / b_adapt=2 / b_bias=0 / direct=3 / weightb=1 / open_gop=0 / weightp=2 / keyint=250 / keyint_min=23 / scenecut=40 / intra_refresh=0 / rc=crf / mbtree=0 / crf=18.0 / qcomp=0.60 / qpmin=0 / qpmax=69 / qpstep=4 / ip_ratio=1.30 / pb_ratio=1.20 / aq=1:0.90 / zones=143195,149040,crf=30
Язык : English
Default : Да
Forced : Нет
Аудио #1
Идентификатор : 2
Формат : DTS
Формат/Информация : Digital Theater Systems
Режим : 16
Параметр Endianness формата : Big
Идентификатор кодека : A_DTS
Продолжительность : 1 ч. 43 м.
Вид битрейта : Постоянный
Битрейт : 1509 Кбит/сек
Каналы : 6 каналов
Расположение каналов : Front: L C R, Side: L R, LFE
Частота : 48,0 КГц
Битовая глубина : 24 бит
Метод сжатия : С потерями
Размер потока : 1,09 Гбайт (9%)
Заголовок : |Дубляж, BluRay RUS|
Язык : Russian
Default : Да
Forced : Нет
Аудио #2
Идентификатор : 3
Формат : AC-3
Формат/Информация : Audio Coding 3
Расширение режима : CM (complete main)
Параметр Endianness формата : Big
Идентификатор кодека : A_AC3
Продолжительность : 1 ч. 43 м.
Вид битрейта : Постоянный
Битрейт : 192 Кбит/сек
Каналы : 2 канала
Расположение каналов : Front: L R
Частота : 48,0 КГц
Битовая глубина : 16 бит
Метод сжатия : С потерями
Размер потока : 142 Мбайт (1%)
Заголовок : |Многоголосый закадровый, 1+1|
Язык : Ukrainian
Default : Нет
Forced : Нет
Аудио #3
Идентификатор : 4
Формат : AC-3
Формат/Информация : Audio Coding 3
Расширение режима : CM (complete main)
Параметр Endianness формата : Big
Идентификатор кодека : A_AC3
Продолжительность : 1 ч. 43 м.
Вид битрейта : Постоянный
Битрейт : 640 Кбит/сек
Каналы : 6 каналов
Расположение каналов : Front: L C R, Side: L R, LFE
Частота : 48,0 КГц
Битовая глубина : 16 бит
Метод сжатия : С потерями
Размер потока : 474 Мбайт (4%)
Язык : English
Default : Нет
Forced : Нет
Текст #1
Идентификатор : 5
Формат : UTF-8
Идентификатор кодека : S_TEXT/UTF8
Идентификатор кодека/Информация : UTF-8 Plain Text
Язык : Russian
Default : Нет
Forced : Нет
Текст #2
Идентификатор : 6
Формат : UTF-8
Идентификатор кодека : S_TEXT/UTF8
Идентификатор кодека/Информация : UTF-8 Plain Text
Язык : English
Default : Нет
Forced : Нет
Меню
00:00:00.000 : en:Chapter 01
00:10:10.025 : en:Chapter 02
00:17:18.537 : en:Chapter 03
00:29:32.229 : en:Chapter 04
00:37:04.847 : en:Chapter 05
00:44:12.650 : en:Chapter 06
00:55:12.518 : en:Chapter 07
01:02:22.197 : en:Chapter 08
01:09:19.947 : en:Chapter 09
01:17:12.211 : en:Chapter 10
01:28:30.639 : en:Chapter 11
01:39:34.010 : en:Chapter 12
-

_________________
Показать сообщения:    

Текущее время: Сегодня 10:59

Часовой пояс: GMT



Вы не можете начинать темы
Вы не можете отвечать на сообщения
Вы не можете редактировать свои сообщения
Вы не можете удалять свои сообщения
Вы не можете голосовать в опросах
Вы не можете прикреплять файлы к сообщениям
Вы не можете скачивать файлы