Ивановский Торрент трекер
Яндекс.Погода
 

[Цитировать]
HUNTER

Они / Them!
-Страна: США
Жанр: ужасы, фантастика
Год выпуска: 1954
Продолжительность: 01:32:33-Перевод: Профессиональный (двухголосый закадровый)-Cубтитры: русские, английские
Оригинальная аудиодорожка: английский-Режиссер: Гордон Дуглас / Gordon Douglas-В ролях: Джеймс Уитмор, Эдмунд Гвенн, Джоан Уэлдон, Джеймс Арнесс, Онслоу Стивенс, Шон МакКлори, Крис Дрэйк, Сэнди Десчер, Мэри Алан Хокансон, Дон Шелтон-Описание:
В небольшом городке Нью-Мексико совершается несколько странных и зверских убийств. Ведут расследование полицейский Бен Петерсон и опытный агент ФБР Роберт Грэхем.
Сыщиков не покидает ощущение мрачной и страшной загадки: в этом деле слишком много странностей — проломленные стены, оставленные при трупах деньги, необычно убитые люди, необычные следы и странные звуки в районе преступления.
Все это приводит в Нью-Мексико совершенно неожиданных людей — доктора наук Медфорда и его очаровательную дочь Пэт. Именно они раскрывают тайну загадочных убийств — за ними стоят вовсе не люди, а огромные мутировавшие муравьи…
Эти пугающие твари опасны не только для жителей маленького городка, в случае их успешного размножения они будут представлять опасность для всего человечества.-Сэмпл: Скачать-Тип релиза: BDRemux 1080p
Контейнер: MKV
Видео: MPEG-4 AVC Video; 27932 kbps; 1080p; 23.976 fps; 16:9; High Profile 4.1
Аудио 1: Russian; AC3; 48.0 KHz; 2ch; 192 Kbps
Аудио 2: English; FLAC; 48.0 KHz; 1ch; 638 Kbps
Формат субтитров: softsub (SRT)

MediaInfo

Format : Matroska
Format version : Version 4 / Version 2
File size : 18.6 GiB
Duration : 1h 32mn
Overall bit rate mode : Variable
Overall bit rate : 28.8 Mbps
Encoded date : UTC 2016-07-06 06:40:45
Writing application : mkvmerge v8.3.0 ('Over the Horizon') 64bit
Writing library : libebml v1.3.1 + libmatroska v1.4.2
Attachments : poster.jpg
Video
ID : 1
Format : AVC
Format/Info : Advanced Video Codec
Format profile : High@L4.1
Format settings, CABAC : Yes
Format settings, ReFrames : 2 frames
Format settings, GOP : M=1, N=10
Codec ID : V_MPEG4/ISO/AVC
Duration : 1h 32mn
Bit rate mode : Variable
Bit rate : 27.9 Mbps
Width : 1 920 pixels
Height : 1 080 pixels
Display aspect ratio : 16:9
Frame rate mode : Constant
Frame rate : 23.976 (24000/1001) fps
Color space : YUV
Chroma subsampling : 4:2:0
Bit depth : 8 bits
Scan type : Progressive
Bits/(Pixel*Frame) : 0.562
Stream size : 18.1 GiB (97%)
Default : Yes
Forced : No
Audio #1
ID : 2
Format : AC-3
Format/Info : Audio Coding 3
Mode extension : CM (complete main)
Format settings, Endianness : Big
Codec ID : A_AC3
Duration : 1h 32mn
Bit rate mode : Constant
Bit rate : 192 Kbps
Channel(s) : 2 channels
Channel positions : Front: L R
Sampling rate : 48.0 KHz
Frame rate : 31.250 fps (1536 spf)
Compression mode : Lossy
Stream size : 127 MiB (1%)
Title : MVO
Language : Russian
Default : Yes
Forced : No
Audio #2
ID : 3
Format : FLAC
Format/Info : Free Lossless Audio Codec
Codec ID : A_FLAC
Duration : 1h 32mn
Bit rate mode : Variable
Bit rate : 638 Kbps
Channel(s) : 1 channel
Channel positions : Front: C
Sampling rate : 48.0 KHz
Frame rate : 11.719 fps (4096 spf)
Bit depth : 24 bits
Stream size : 422 MiB (2%)
Writing library : libFLAC 1.2.1 (UTC 2007-09-17)
Language : English
Default : No
Forced : No
Text #1
ID : 4
Format : UTF-8
Codec ID : S_TEXT/UTF8
Codec ID/Info : UTF-8 Plain Text
Duration : 1h 32mn
Bit rate : 121 bps
Count of elements : 1323
Stream size : 81.9 KiB (0%)
Language : Russian
Default : No
Forced : No
Text #2
ID : 5
Format : UTF-8
Codec ID : S_TEXT/UTF8
Codec ID/Info : UTF-8 Plain Text
Duration : 1h 30mn
Bit rate : 67 bps
Count of elements : 1056
Stream size : 44.7 KiB (0%)
Language : English
Default : No
Forced : No
Menu
00:00:00.000 : en:00:00:00.000
00:01:22.082 : en:00:01:22.082
00:04:11.918 : en:00:04:11.918
00:08:36.015 : en:00:08:36.015
00:10:18.868 : en:00:10:18.868
00:13:44.365 : en:00:13:44.365
00:16:48.174 : en:00:16:48.174
00:19:01.349 : en:00:19:01.349
00:22:52.371 : en:00:22:52.371
00:24:29.134 : en:00:24:29.134
00:27:29.273 : en:00:27:29.273
00:31:19.586 : en:00:31:19.586
00:34:56.428 : en:00:34:56.428
00:37:45.597 : en:00:37:45.597
00:42:17.702 : en:00:42:17.702
00:46:13.813 : en:00:46:13.813
00:48:04.507 : en:00:48:04.507
00:53:35.838 : en:00:53:35.838
00:58:30.632 : en:00:58:30.632
01:01:38.403 : en:01:01:38.403
01:04:26.988 : en:01:04:26.988
01:06:40.788 : en:01:06:40.788
01:08:25.601 : en:01:08:25.601
01:10:36.441 : en:01:10:36.441
01:13:44.253 : en:01:13:44.253
01:16:50.147 : en:01:16:50.147
01:21:17.998 : en:01:21:17.998
01:25:48.894 : en:01:25:48.894
01:27:54.978 : en:01:27:54.978
01:30:44.939 : en:01:30:44.939

Скриншоты



Показать сообщения:    

Текущее время: 12-Дек 04:52

Часовой пояс: UTC ± 0


Вы не можете начинать темы
Вы не можете отвечать на сообщения
Вы не можете редактировать свои сообщения
Вы не можете удалять свои сообщения
Вы не можете голосовать в опросах
Вы не можете прикреплять файлы к сообщениям
Вы не можете скачивать файлы

!ВНИМАНИЕ!
Сайт не предоставляет электронные версии произведений, а занимается лишь коллекционированием и каталогизацией ссылок, присылаемых и публикуемых на форуме нашими читателями. Если вы являетесь правообладателем какого-либо представленного материала и не желаете, чтобы ссылка на него находилась в нашем каталоге, свяжитесь с нами, и мы незамедлительно удалим ее. Файлы для обмена на трекере предоставлены пользователями сайта, и администрация не несет ответственности за их содержание. Просьба не заливать файлы, защищенные авторскими правами, а также файлы нелегального содержания!