Ивановский Торрент трекер
Яндекс.Погода
Статистика раздачи
Размер:  4.5 GB   |    Зарегистрирован:  3 года 4 месяца   |    Скачан:  0 раз

Полного источника не было: Никогда

 
     
 
 
 

[Цитировать]
HUNTER

Они были солдатами 2 / Святые и солдаты: Бортовое кредо / Saints and Soldiers: Airborne Creed
Страна: США
Студия: Go Films
Жанр: боевик, драма, военный
Год выпуска: 2012
Продолжительность: 01:37:49
Перевод: Профессиональный (двухголосый закадровый) НТВ+
Cубтитры: нет
Оригинальная аудиодорожка: английский
Режиссер: Райан Литтл / Ryan Little
В ролях: Корбин Оллред, Джасен Вэйд, Бренден Уитни, Линкольн Хопп, Дэвид Нибли, Нишелль Эйден, Эндрю В. Джонсон, Крис Провост, Иван Р. Бёрд, Лэнс Отто
Описание: 15 августа 1944 года взвод 517-ого парашютно-десантного полка был заброшен на территорию южной Франции для поддержки наступления союзных войск на Берлин. Приземляясь на вражеской территории десантники вступают в непосредственное боестолкновение с противником. При выполнении миссии трое парашютистов встречаются с участниками группы Французского Сопротивления. Они решают помочь, рискуя своей жизнью, французским военным, попавшим в плен к врагу, и тем самым поддержать жизненное Кредо Десантника.
Сэмпл: http://multi-up.com/983453
Тип релиза: BDRip 720p рип от - CHD
Контейнер: MKV
Видео: MPEG-4 AVC, High@L4.1, 4877 Kbps, 1280 х 546 pixels, 24.000 fps
Аудио: AC3, 192 Kbps, 2 channels, Front: L R, 48.0 KHz, 16 bits
Аудио 2: DTS, 1509 Kbps, 6 channels, Front: L C R, Side: L R, LFE, 48.0 KHz, 16 bits

MediaInfo

General
Unique ID : 219477934955830636084275028600438101665 (0xA51DE9A71FED8CF2BA774A33087F96A1)
Complete name : D:\kirovtorrent\Saints.and.Soldiers.2.Airborne.Creed.2012.BluRay.720p.DTS.x264-CHD.mkv
Format : Matroska
Format version : Version 2
File size : 4.50 GiB
Duration : 1h 37mn
Overall bit rate : 6 581 Kbps
Encoded date : UTC 2013-02-27 20:33:54
Writing application : mkvmerge v5.2.0 ('I can't explain') built on Dec 18 2011 18:12:03
Writing library : libebml v1.2.3 + libmatroska v1.3.0
Video
ID : 1
Format : AVC
Format/Info : Advanced Video Codec
Format profile : High@L4.1
Format settings, CABAC : Yes
Format settings, ReFrames : 11 frames
Codec ID : V_MPEG4/ISO/AVC
Duration : 1h 37mn
Bit rate : 4 877 Kbps
Width : 1 280 pixels
Height : 546 pixels
Display aspect ratio : 2.35:1
Frame rate mode : Constant
Frame rate : 24.000 fps
Color space : YUV
Chroma subsampling : 4:2:0
Bit depth : 8 bits
Scan type : Progressive
Bits/(Pixel*Frame) : 0.291
Stream size : 3.25 GiB (72%)
Title : Saints.and.Soldiers.2.Airborne.Creed.2012.BluRay.720p.DTS.x264-CHD
Writing library : x264 core 128 r2216+698 b3c1019
Encoding settings : cabac=1 / ref=11 / deblock=1:1:1 / analyse=0x3:0x113 / me=umh / subme=10 / psy=1 / fade_compensate=0.00 / psy_rd=1.05:0.10 / mixed_ref=1 / me_range=32 / chroma_me=1 / trellis=2 / 8x8dct=1 / cqm=0 / deadzone=21,11 / fast_pskip=0 / chroma_qp_offset=-2 / threads=12 / lookahead_threads=2 / sliced_threads=0 / nr=0 / decimate=1 / interlaced=0 / bluray_compat=0 / constrained_intra=0 / fgo=0 / bframes=6 / b_pyramid=2 / b_adapt=2 / b_bias=0 / direct=3 / weightb=1 / open_gop=0 / weightp=2 / keyint=250 / keyint_min=24 / scenecut=40 / intra_refresh=0 / rc=2pass / mbtree=0 / bitrate=4877 / ratetol=1.0 / qcomp=0.70 / qpmin=0 / qpmax=69 / qpstep=4 / cplxblur=20.0 / qblur=0.5 / ip_ratio=1.40 / pb_ratio=1.30 / aq=2:1.00
Language : English
Default : Yes
Forced : Yes
Audio #1
ID : 2
Format : AC-3
Format/Info : Audio Coding 3
Mode extension : CM (complete main)
Format settings, Endianness : Big
Codec ID : A_AC3
Duration : 1h 37mn
Bit rate mode : Constant
Bit rate : 192 Kbps
Channel(s) : 2 channels
Channel positions : Front: L R
Sampling rate : 48.0 KHz
Bit depth : 16 bits
Compression mode : Lossy
Stream size : 134 MiB (3%)
Title : DD 2.0 @ 192 kbps - NTV+
Language : Russian
Default : Yes
Forced : Yes
Audio #2
ID : 3
Format : DTS
Format/Info : Digital Theater Systems
Mode : 16
Format settings, Endianness : Big
Codec ID : A_DTS
Duration : 1h 37mn
Bit rate mode : Constant
Bit rate : 1 509 Kbps
Channel(s) : 6 channels
Channel positions : Front: L C R, Side: L R, LFE
Sampling rate : 48.0 KHz
Bit depth : 24 bits
Compression mode : Lossy
Stream size : 1.03 GiB (23%)
Title : DTS 5.1 @ 1536 kbps
Language : English
Default : No
Forced : No
Menu
00:00:00.000 : en:00:00:00.000
00:10:52.000 : en:00:10:52.000
00:23:08.125 : en:00:23:08.125
00:32:04.167 : en:00:32:04.167
00:47:00.000 : en:00:47:00.000
00:56:31.000 : en:00:56:31.000
01:04:02.000 : en:01:04:02.000
01:17:23.000 : en:01:17:23.000
01:22:03.000 : en:01:22:03.000
01:25:46.500 : en:01:25:46.500
01:28:57.250 : en:01:28:57.250
01:32:20.000 : en:01:32:20.000

Скриншоты

[iv-torrents.ru].t30193.torrent
Торрент: Зарегистрирован [ 2014-07-24 16:02 ] · 0ACE3229AC17884097C9DF7760D5568F269988EC

Скачать .torrent

Скачать

23 KB

Статус: проверено
Скачан: 0 раз
Размер: 4.5 GB
terms.php


Показать сообщения:    

Текущее время: 17-Дек 10:16

Часовой пояс: UTC ± 0


Вы не можете начинать темы
Вы не можете отвечать на сообщения
Вы не можете редактировать свои сообщения
Вы не можете удалять свои сообщения
Вы не можете голосовать в опросах
Вы не можете прикреплять файлы к сообщениям
Вы можете скачивать файлы

!ВНИМАНИЕ!
Сайт не предоставляет электронные версии произведений, а занимается лишь коллекционированием и каталогизацией ссылок, присылаемых и публикуемых на форуме нашими читателями. Если вы являетесь правообладателем какого-либо представленного материала и не желаете, чтобы ссылка на него находилась в нашем каталоге, свяжитесь с нами, и мы незамедлительно удалим ее. Файлы для обмена на трекере предоставлены пользователями сайта, и администрация не несет ответственности за их содержание. Просьба не заливать файлы, защищенные авторскими правами, а также файлы нелегального содержания!