Она неуправляема / Переходный возраст / Она не поддается контролю / Она больше не слушается / She\'s Out of Control (Стэн Дрэготи / Stan Dragoti) [1989, США, комедия, WEB-DL 720p] MVO + AVO (М. Иванов) + Sub Eng + Original Eng :: Ивановский Торрент трекер
Важное объявление!
У Нас Все раздачи мультитрекерные, при нуле пиров в релизах, можете смело вставать на закачку!
 
Автор Сообщение

HUNTER

Стаж:
4 года 11 месяцев
Сообщений:
66045

Репутация: 101

[+] [-]
Вне форума [Профиль] [ЛС]

Она неуправляема / Переходный возраст / Она не поддается контролю / Она больше не слушается / She's Out of Control
Страна: США
Студия: Weintraub Entertainment Group, Upstart Productions
Жанр: комедия
Год выпуска: 1989
Продолжительность: 01:34:19
Перевод 1: Профессиональный (многоголосый закадровый)
Перевод 2: Авторский (одноголосый закадровый) Михаил Иванов
Cубтитры: английские
Оригинальная аудиодорожка: английский
Режиссер: Стэн Дрэготи / Stan Dragoti
В ролях: Тони Данза, Кэтрин Хикс, Уоллес Шоун, Дик О'Нил, Эми Доленц, Лаура Муни, Дерек МакГрат, Дэна Эшбрук, Мэттью Перри и др.
Описание: Директор радиостанции Даг Симпсон уехал в командировку, оставив дома дочку Кейти, которая была обычным угловатым подростком. По возвращении домой Даг с трудом узнает в сногсшибательной красотке свою Кейти. Девушка созрела! Ее расположения добиваются сразу несколько юношей. Их внимание льстит Кейти, но ужасно раздражает ее отца. Даг никак не может осознать, что его дочь повзрослела, и продолжает опекать ее как маленькую девочку. В конце концов он попадает к психологу, написавшему целую книгу для отцов, чьи дочери достигли так называемого переходного возраста, и начинает следовать его советам. Насколько они эффективны, ему предстоит проверить на личном опыте.
II Сэмпл II IMDB II
Доп. информация:
За исходник спасибо rufedosenkos
За русские дороги спасибо edich2
Тип релиза: WEB-DL 720p
Контейнер: MKV
Видео: AVC / 1280x718 / 16:9 / 23.976fps / Bit rate 3964Kbps
Аудио 1: AC3 / 48.0 KHz / 2ch. / 192kbps / rus / mvo
Аудио 2: AC3 / 48.0 KHz / 2ch. / 192kbps / rus / avo / Михаил Иванов
Аудио 3: AAC-LC / 48.0 KHz / 2ch. / 128kbps / eng
Формат субтитров: softsub (SRT)

MediaInfo

Общее
Уникальный идентификатор : 182520052198987029678232611494582272763 (0x895015599430AD54BE0E92AFB737C2FB)
Полное имя : H:\!_Torrent\She's.Out.of.Control.1989.WEB-DL.720p_by_vedigo.mkv
Формат : Matroska
Версия формата : Version 4 / Version 2
Размер файла : 3,00 Гбайт
Продолжительность : 1 ч. 34 м.
Общий поток : 4557 Кбит/сек
Название фильма : She's.Out.of.Control.1989.WEB-DL.720p_by_vedigo
Дата кодирования : UTC 2015-10-24 11:42:45
Программа кодирования : mkvmerge v8.5.1 ('Where you lead I will follow') 64bit
Библиотека кодирования : libebml v1.3.3 + libmatroska v1.4.4
DURATION : 01:29:55.714000000
NUMBER_OF_FRAMES : 1117
NUMBER_OF_BYTES : 43540
_STATISTICS_WRITING_APP : mkvmerge v8.5.1 ('Where you lead I will follow') 64bit
_STATISTICS_WRITING_DATE_UTC : 2015-10-24 11:42:45
_STATISTICS_TAGS : BPS DURATION NUMBER_OF_FRAMES NUMBER_OF_BYTES
Видео
Идентификатор : 1
Формат : AVC
Формат/Информация : Advanced Video Codec
Профиль формата : High@L3.1
Параметр CABAC формата : Нет
Параметр ReFrames формата : 2 кадра
Идентификатор кодека : V_MPEG4/ISO/AVC
Продолжительность : 1 ч. 34 м.
Ширина : 1280 пикселей
Высота : 718 пикселей
Соотношение сторон : 16:9
Режим частоты кадров : Постоянный
Частота кадров : 23,976 кадра/сек
Цветовое пространство : YUV
Субдискретизация насыщенности : 4:2:0
Битовая глубина : 8 бит
Тип развёртки : Прогрессивная
Заголовок : She's.Out.of.Control.1989.WEB-DL.720p_by_vedigo
Язык : English
Default : Да
Forced : Нет
Цветовой диапазон : Limited
Основные цвета : BT.709
Характеристики трансфера : BT.709
Коэффициенты матрицы : BT.709
Аудио #1
Идентификатор : 2
Формат : AC-3
Формат/Информация : Audio Coding 3
Расширение режима : CM (complete main)
Параметр Endianness формата : Big
Идентификатор кодека : A_AC3
Продолжительность : 1 ч. 34 м.
Вид битрейта : Постоянный
Битрейт : 192 Кбит/сек
Каналы : 2 канала
Расположение каналов : Front: L R
Частота : 48,0 КГц
Метод сжатия : С потерями
Размер потока : 130 Мбайт (4%)
Заголовок : MVO
Язык : Russian
Default : Да
Forced : Нет
Аудио #2
Идентификатор : 3
Формат : AC-3
Формат/Информация : Audio Coding 3
Расширение режима : CM (complete main)
Параметр Endianness формата : Big
Идентификатор кодека : A_AC3
Продолжительность : 1 ч. 34 м.
Вид битрейта : Постоянный
Битрейт : 192 Кбит/сек
Каналы : 2 канала
Расположение каналов : Front: L R
Частота : 48,0 КГц
Метод сжатия : С потерями
Размер потока : 130 Мбайт (4%)
Заголовок : AVO @ Михаил Иванов
Язык : Russian
Default : Нет
Forced : Нет
Аудио #3
Идентификатор : 4
Формат : AAC
Формат/Информация : Advanced Audio Codec
Профиль формата : LC
Идентификатор кодека : A_AAC
Продолжительность : 1 ч. 34 м.
Каналы : 2 канала
Расположение каналов : Front: L R
Частота : 48,0 КГц
Метод сжатия : С потерями
Заголовок : original
Язык : English
Default : Нет
Forced : Нет
Текст
Идентификатор : 5
Формат : UTF-8
Идентификатор кодека : S_TEXT/UTF8
Идентификатор кодека/Информация : UTF-8 Plain Text
Заголовок : subtitle eng
Язык : English
Default : Нет
Forced : Нет

Скриншоты



_________________
Показать сообщения:    

Текущее время: Сегодня 14:08

Часовой пояс: GMT



Вы не можете начинать темы
Вы не можете отвечать на сообщения
Вы не можете редактировать свои сообщения
Вы не можете удалять свои сообщения
Вы не можете голосовать в опросах
Вы не можете прикреплять файлы к сообщениям
Вы не можете скачивать файлы