Важное объявление!
У Нас Все раздачи мультитрекерные, при нуле пиров в релизах, можете смело вставать на закачку!
Статистика раздачи
Размер:     |    Зарегистрирован:     |    Скачан:     |   
Нет
 
     
 
 
Автор Сообщение

HUNTER

Стаж:
5 лет 1 месяц
Сообщений:
68439

Репутация: 101

[+] [-]
Вне форума [Профиль] [ЛС]

Омерзительная восьмерка/ The Hateful Eight
Страна: США
Жанр: Триллер, драма, криминал, детектив, вестерн
Год выпуска: 2015
Продолжительность: 02:47:48
Перевод: Профессиональный (дублированный) | iTunes
Оригинальная аудиодорожка: английский
Субтитры: русские, украинские, английские
Режиссер: Квентин Тарантино / Quentin Tarantino
В ролях: Курт Рассел, Сэмюэл Л. Джексон, Тим Рот, Майкл Мэдсен, Дженнифер Джейсон Ли, Уолтон Гоггинс, Демиан Бишир, Брюс Дерн, Джеймс Паркс, Дэна Гурье
О фильме: США после Гражданской войны. Легендарный охотник за головами Джон Рут по кличке Вешатель конвоирует заключенную. По пути к ним прибиваются еще несколько путешественников. Снежная буря вынуждает компанию искать укрытие в лавке на отшибе, где уже расположилось весьма пестрое общество: генерал конфедератов, мексиканец, ковбой... И один из них - не тот, за кого себя выдает.
Тип релиза: BDRip 720p | L
Контейнер: MKV
Видео: MPEG-4 AVC Video ~6012 kbps 1280x464 / 23,976 fps / 2.75:1 / High Profile 4.1
Звук:
Русский: 48 kHz, AC3 Dolby Digital, 3/2 (L,C,R,l,r) + LFE ch, ~384 kbps
Английский: 48 kHz, DTS, 3/2 (L,C,R,l,r) + LFE ch, ~1509.00 kbps avg
Субтитры: srt

Скриншоты





MI/Log x.264

Код:
Уникальный идентификатор                 : 214323586734398961949641127151295194633 (0xA13D38AA43A216F29D2810C98722E609)
Полное имя                               : D:\L#TNClub\The.Hateful.Eight.2015.BluRay.720p.DD5.1.x264-L.mkv
Формат                                   : Matroska
Версия формата                           : Version 4 / Version 2
Размер файла                             : 9,27 Гбайт
Продолжительность                        : 2 ч. 47 м.
Общий поток                              : 7908 Кбит/сек
Название фильма                          : The.Hateful.Eight.2015.BluRay.720p.DD5.1.x264-L
Дата кодирования                         : UTC 2016-03-31 05:10:41
Программа кодирования                    : mkvmerge v7.7.0 ('Six Voices') 32bit built on Feb 28 2015 23:23:00
Библиотека кодирования                   : libebml v1.3.1 + libmatroska v1.4.2
Обложка                                  : Yes
Attachments                              : cover.png
Видео
Идентификатор                            : 1
Формат                                   : AVC
Формат/Информация                        : Advanced Video Codec
Профиль формата                          : High@L4.1
Параметр CABAC формата                   : Да
Параметр ReFrames формата                : 12 кадров
Идентификатор кодека                     : V_MPEG4/ISO/AVC
Продолжительность                        : 2 ч. 47 м.
Битрейт                                  : 6011 Кбит/сек
Ширина                                   : 1280 пикселей
Высота                                   : 464 пикселя
Соотношение сторон                       : 2,759
Режим частоты кадров                     : Постоянный
Частота кадров                           : 23,976 (24000/1001) кадра/сек
Цветовое пространство                    : YUV
Субдискретизация насыщенности            : 4:2:0
Битовая глубина                          : 8 бит
Тип развёртки                            : Прогрессивная
Бит/(Пиксели*Кадры)                      : 0.422
Размер потока                            : 7,04 Гбайт (76%)
Заголовок                                : The.Hateful.Eight.2015.BluRay.720p.DD5.1.x264-L
Библиотека кодирования                   : x264 core 148 r2638 7599210
Настройки программы                      : cabac=1 / ref=12 / deblock=1:-2:-1 / analyse=0x3:0x133 / me=umh / subme=11 / psy=1 / psy_rd=1.05:0.10 / mixed_ref=1 / me_range=32 / chroma_me=1 / trellis=2 / 8x8dct=1 / cqm=0 / deadzone=21,11 / fast_pskip=0 / chroma_qp_offset=-4 / threads=6 / lookahead_threads=1 / sliced_threads=0 / nr=0 / decimate=1 / interlaced=0 / bluray_compat=0 / constrained_intra=0 / bframes=11 / b_pyramid=2 / b_adapt=2 / b_bias=0 / direct=1 / weightb=1 / open_gop=0 / weightp=2 / keyint=230 / keyint_min=21 / scenecut=40 / intra_refresh=0 / rc_lookahead=60 / rc=crf / mbtree=0 / crf=14.0 / qcomp=0.70 / qpmin=0 / qpmax=69 / qpstep=4 / vbv_maxrate=50000 / vbv_bufsize=60000 / crf_max=0.0 / nal_hrd=none / filler=0 / ip_ratio=1.35 / pb_ratio=1.25 / aq=2:0.90
Язык                                     : English
Default                                  : Да
Forced                                   : Нет
Аудио #1
Идентификатор                            : 2
Формат                                   : AC-3
Формат/Информация                        : Audio Coding 3
Расширение режима                        : CM (complete main)
Параметр Endianness формата              : Big
Идентификатор кодека                     : A_AC3
Продолжительность                        : 2 ч. 47 м.
Вид битрейта                             : Постоянный
Битрейт                                  : 384 Кбит/сек
Каналы                                   : 6 каналов
Расположение каналов                     : Front: L C R, Side: L R, LFE
Частота                                  : 48,0 КГц
Частота кадров                           : 31,250 кадров/сек (1536 spf)
Метод сжатия                             : С потерями
Размер потока                            : 461 Мбайт (5%)
Заголовок                                : DD5.1@384kbps
Язык                                     : Russian
Default                                  : Да
Forced                                   : Нет
Аудио #2
Идентификатор                            : 3
Формат                                   : DTS
Формат/Информация                        : Digital Theater Systems
Режим                                    : 16
Параметр Endianness формата              : Big
Идентификатор кодека                     : A_DTS
Продолжительность                        : 2 ч. 47 м.
Вид битрейта                             : Постоянный
Битрейт                                  : 1509 Кбит/сек
Каналы                                   : 6 каналов
Расположение каналов                     : Front: L C R, Side: L R, LFE
Частота                                  : 48,0 КГц
Частота кадров                           : 93,750 кадра/сек (512 spf)
Битовая глубина                          : 24 бит
Метод сжатия                             : С потерями
Размер потока                            : 1,77 Гбайт (19%)
Заголовок                                : DTS5.1@1509
Язык                                     : English
Default                                  : Нет
Forced                                   : Нет
Текст #1
Идентификатор                            : 4
Формат                                   : UTF-8
Идентификатор кодека                     : S_TEXT/UTF8
Идентификатор кодека/Информация          : UTF-8 Plain Text
Продолжительность                        : 2 ч. 38 м.
Битрейт                                  : 93 бит/сек
Count of elements                        : 1705
Размер потока                            : 109 Кбайт (0%)
Язык                                     : Russian
Default                                  : Нет
Forced                                   : Нет
Текст #2
Идентификатор                            : 5
Формат                                   : UTF-8
Идентификатор кодека                     : S_TEXT/UTF8
Идентификатор кодека/Информация          : UTF-8 Plain Text
Продолжительность                        : 2 ч. 42 м.
Битрейт                                  : 89 бит/сек
Count of elements                        : 1741
Размер потока                            : 107 Кбайт (0%)
Язык                                     : Russian
Default                                  : Нет
Forced                                   : Нет
Текст #3
Идентификатор                            : 6
Формат                                   : UTF-8
Идентификатор кодека                     : S_TEXT/UTF8
Идентификатор кодека/Информация          : UTF-8 Plain Text
Продолжительность                        : 2 ч. 41 м.
Битрейт                                  : 88 бит/сек
Count of elements                        : 1764
Размер потока                            : 105 Кбайт (0%)
Язык                                     : Ukrainian
Default                                  : Нет
Forced                                   : Нет
Текст #4
Идентификатор                            : 7
Формат                                   : UTF-8
Идентификатор кодека                     : S_TEXT/UTF8
Идентификатор кодека/Информация          : UTF-8 Plain Text
Продолжительность                        : 2 ч. 38 м.
Битрейт                                  : 62 бит/сек
Count of elements                        : 2633
Размер потока                            : 72,3 Кбайт (0%)
Язык                                     : English
Default                                  : Нет
Forced                                   : Нет
Меню
00:00:00.000                             : en:00:00:00.000
00:04:33.523                             : en:00:04:33.523
00:11:36.112                             : en:00:11:36.112
00:22:01.362                             : en:00:22:01.362
00:35:02.434                             : en:00:35:02.434
00:43:31.901                             : en:00:43:31.901
00:52:12.212                             : en:00:52:12.212
00:59:04.499                             : en:00:59:04.499
01:08:30.315                             : en:01:08:30.315
01:16:10.858                             : en:01:16:10.858
01:25:18.447                             : en:01:25:18.447
01:35:06.492                             : en:01:35:06.492
01:42:20.176                             : en:01:42:20.176
01:50:33.335                             : en:01:50:33.335
01:59:32.499                             : en:01:59:32.499
02:06:43.054                             : en:02:06:43.054
02:13:26.624                             : en:02:13:26.624
02:19:59.725                             : en:02:19:59.725
02:24:17.023                             : en:02:24:17.023
02:34:08.114                             : en:02:34:08.114
02:39:38.027                             : en:02:39:38.027
02:43:22.751                             : en:02:43:22.751
Код:
x264 [info]: frame I:1817  Avg QP:10.96  size:139952  PSNR Mean Y:51.41 U:54.78 V:55.02 Avg:52.26 Global:51.95
x264 [info]: frame P:40362 Avg QP:12.28  size: 59461  PSNR Mean Y:49.51 U:52.63 V:52.94 Avg:50.32 Global:50.01
x264 [info]: frame B:199154 Avg QP:14.38  size: 24650  PSNR Mean Y:48.36 U:51.65 V:52.10 Avg:49.18 Global:48.82
x264 [info]: consecutive B-frames:  1.0%  0.4%  2.1%  7.2% 13.8% 41.8% 11.7%  6.3%  5.7%  3.5%  3.3%  3.2%
Video Bitrate Obtained (approximate): 6012 kbit/s

_________________
Показать сообщения:    

Текущее время: Сегодня 05:53

Часовой пояс: GMT



Вы не можете начинать темы
Вы не можете отвечать на сообщения
Вы не можете редактировать свои сообщения
Вы не можете удалять свои сообщения
Вы не можете голосовать в опросах
Вы не можете прикреплять файлы к сообщениям
Вы не можете скачивать файлы