Важное объявление!
У Нас Все раздачи мультитрекерные, при нуле пиров в релизах, можете смело вставать на закачку!
Статистика раздачи
Размер:     |    Зарегистрирован:     |    Скачан:     |   
Нет
 
     
 
 
Автор Сообщение

HUNTER

Стаж:
5 лет
Сообщений:
67935

Репутация: 101

[+] [-]
Вне форума [Профиль] [ЛС]

-Омерзительная восьмерка / The Hateful Eight
«Без хорошей причины сюда не лезут»-
-Страна: США
Жанр: Триллер, Драма, Криминал, Детектив, Вестерн
Год выпуска: 2015
Продолжительность: 02:47:44-Перевод: Профессиональный (дублированный) Line + вставки Есарева на испанскую речь-Cубтитры: Русские, Английские
Оригинальная аудиодорожка: Английская-Режиссер: Квентин Тарантино / Quentin Tarantino-В ролях: Курт Рассел, Сэмюэл Л. Джексон, Тим Рот, Майкл Мэдсен, Дженнифер Джейсон Ли, Ченнинг Татум, Уолтон Гоггинс, Зои Белл-Описание: США после Гражданской войны. Легендарный охотник за головами Джон Рут по кличке Вешатель конвоирует заключенную. По пути к ним прибиваются еще несколько путешественников. Снежная буря вынуждает компанию искать укрытие в лавке на отшибе, где уже расположилось весьма пестрое общество: генерал конфедератов, мексиканец, ковбой... И один из них - не тот, за кого себя выдает.- - -Тип релиза: BDRip 720p
Контейнер: MKV-Видео: MPEG-4 AVC, 1280x464 (2.75:1), 23.976 fps, ~5021 kbps avg, 0.355 bit/pixel
Аудио 1: 48 kHz, AC3 Dolby Digital, 2/0 (L,R) ch, ~192 kbps avg
Аудио 2: 48 kHz, DTS, 3/2 (L,C,R,l,r) + LFE ch, ~1509 kbps avg-

MediaInfo

Complete name : D:\РАЗДАЧИ\The Hateful Eight (2015) BDRip 720p.mkv
Format : Matroska
Format version : Version 2
File size : 7.88 GiB
Duration : 2h 47mn
Overall bit rate : 6 725 Kbps
Movie name : The Hateful Eight (2015) BDRip 720p
Encoded date : UTC 2016-03-06 13:00:53
Writing application : mkvmerge v3.0.0 ('Hang up your Hang-Ups') built on Dec 12 2009 15:20:35
Writing library : libebml v0.7.9 + libmatroska v0.8.1
Cover : Yes
Attachments : cover.png
Video
ID : 1
Format : AVC
Format/Info : Advanced Video Codec
Format profile : High@L4.1
Format settings, CABAC : Yes
Format settings, ReFrames : 5 frames
Codec ID : V_MPEG4/ISO/AVC
Duration : 2h 47mn
Bit rate : 5 021 Kbps
Width : 1 280 pixels
Height : 464 pixels
Display aspect ratio : 2.759
Frame rate mode : Constant
Frame rate : 23.976 fps
Color space : YUV
Chroma subsampling : 4:2:0
Bit depth : 8 bits
Scan type : Progressive
Bits/(Pixel*Frame) : 0.353
Stream size : 5.73 GiB (73%)
Writing library : x264 core 148 r2665 a01e339
Encoding settings : cabac=1 / ref=5 / deblock=1:0:0 / analyse=0x3:0x133 / me=umh / subme=7 / psy=1 / psy_rd=1.00:0.00 / mixed_ref=1 / me_range=16 / chroma_me=1 / trellis=1 / 8x8dct=1 / cqm=0 / deadzone=21,11 / fast_pskip=0 / chroma_qp_offset=-2 / threads=12 / lookahead_threads=2 / sliced_threads=0 / nr=0 / decimate=1 / interlaced=0 / bluray_compat=0 / constrained_intra=0 / bframes=3 / b_pyramid=2 / b_adapt=1 / b_bias=0 / direct=1 / weightb=1 / open_gop=0 / weightp=2 / keyint=250 / keyint_min=23 / scenecut=40 / intra_refresh=0 / rc_lookahead=40 / rc=2pass / mbtree=1 / bitrate=5021 / ratetol=1.0 / qcomp=0.60 / qpmin=0 / qpmax=69 / qpstep=4 / cplxblur=20.0 / qblur=0.5 / ip_ratio=1.40 / aq=1:1.00
Language : English
Default : No
Forced : No
Audio #1
ID : 2
Format : DTS
Format/Info : Digital Theater Systems
Mode : 16
Format settings, Endianness : Big
Codec ID : A_DTS
Duration : 2h 47mn
Bit rate mode : Constant
Bit rate : 1 509 Kbps
Channel(s) : 6 channels
Channel positions : Front: L C R, Side: L R, LFE
Sampling rate : 48.0 KHz
Frame rate : 93.750 fps (512 spf)
Bit depth : 24 bits
Compression mode : Lossy
Stream size : 1.77 GiB (22%)
Title : Original
Language : English
Default : No
Forced : No
Audio #2
ID : 3
Format : AC-3
Format/Info : Audio Coding 3
Mode extension : CM (complete main)
Format settings, Endianness : Big
Codec ID : A_AC3
Duration : 2h 47mn
Bit rate mode : Constant
Bit rate : 192 Kbps
Channel(s) : 2 channels
Channel positions : Front: L R
Sampling rate : 48.0 KHz
Frame rate : 31.250 fps (1536 spf)
Compression mode : Lossy
Stream size : 230 MiB (3%)
Title : Line
Language : Russian
Default : Yes
Forced : No
Text #1
ID : 4
Format : UTF-8
Codec ID : S_TEXT/UTF8
Codec ID/Info : UTF-8 Plain Text
Title : Russian
Language : Russian
Default : No
Forced : No
Text #2
ID : 5
Format : UTF-8
Codec ID : S_TEXT/UTF8
Codec ID/Info : UTF-8 Plain Text
Title : English
Language : English
Default : No
Forced : No
Menu
00:00:00.000 : en:00:00:00.000
00:11:16.092 : en:00:11:16.092
00:14:55.561 : en:00:14:55.561
00:35:02.309 : en:00:35:02.309
00:43:21.057 : en:00:43:21.057
01:25:18.405 : en:01:25:18.405
01:29:54.306 : en:01:29:54.306
01:36:28.533 : en:01:36:28.533
01:38:05.421 : en:01:38:05.421
01:42:22.219 : en:01:42:22.219
01:58:15.755 : en:01:58:15.755
01:59:30.330 : en:01:59:30.330
02:02:24.087 : en:02:02:24.087
02:06:18.821 : en:02:06:18.821
02:08:36.834 : en:02:08:36.834
02:11:51.862 : en:02:11:51.862
02:29:52.025 : en:02:29:52.025
02:34:58.706 : en:02:34:58.706
02:37:41.869 : en:02:37:41.869
02:41:12.913 : en:02:41:12.913
02:43:13.492 : en:02:43:13.492
02:45:57.072 : en:02:45:57.072

Скриншоты


_________________
Показать сообщения:    

Текущее время: Сегодня 00:48

Часовой пояс: GMT



Вы не можете начинать темы
Вы не можете отвечать на сообщения
Вы не можете редактировать свои сообщения
Вы не можете удалять свои сообщения
Вы не можете голосовать в опросах
Вы не можете прикреплять файлы к сообщениям
Вы не можете скачивать файлы