Ивановский Торрент трекер
Яндекс.Погода
 

[Цитировать]
HUNTER

Олли и сокровища пиратов / Dive Olly Dive and the Pirate Treasure -Страна: США / MoonScoop
Жанр: мультфильм, семейный, детский
Год выпуска: 2014
Продолжительность: 01:16:43
Перевод: Профессиональный (дублированный)
Оригинальная аудиодорожка: Английский
Cубтитры: нет
Режиссер: Боб Дусетте / Bob Doucette, Гари Херст / Gary Hurst, Боб Бакстер / Bob Baxter
В ролях: Шон-Райан Петерсен
Роли дублировали: Айза Долматова, Алёна Водонаева, Ксения Бородина
Описание: К подводным лодкам Олли и Бэт присоединяется их друг Бобси, который совершенно убежден, что является потомком «Пи-Ратов» — давних искателей легендарного клада. Их путешествие за сокровищем наполнено чудесами, приключениями и, конечно, юмором, потому что по пятам за ним следует банда Красных Морских Коньков под предводительством интеллигентной, но крайне опасной Акулы… Но даже это не смогло остановить наших героев! Олли, Бэт и Бобси переживут сильный шторм, преодолеют все препятствия и в конце концов смогут найти клад!

Качество: DVDRip / DVD5
Формат: AVI
Видео: 720x400 (1.80:1), 25 fps, XviD build 73 ~1812 kbps avg, 0.25 bit/pixel
Аудио 1: Russian: 48 kHz, AC3 Dolby Digital, 3/2 (L,C,R,l,r) + LFE ch, ~448 kbps
Аудио 2: English: 48 kHz, AC3 Dolby Digital, 3/2 (L,C,R,l,r) + LFE ch, ~448 kbps

MediaInfo

GeneralComplete name : Olli.i.sokrovisha.piratov.2014.D.DVDRip_Olu6ka.aviFormat : AVIFormat/Info : Audio Video InterleaveFile size : 1.46 GiBDuration : 1h 16mnOverall bit rate : 2 724 KbpsWriting application : VirtualDubModRus 1.5.10.2 (build 2542/release)Writing library : VirtualDubMod build 2542/release
VideoID : 0Format : MPEG-4 VisualFormat profile : Advanced Simple@L5Format settings, BVOP : 1Format settings, QPel : NoFormat settings, GMC : No warppointsFormat settings, Matrix : CustomCodec ID : XVIDCodec ID/Hint : XviDDuration : 1h 16mnBit rate : 1 814 KbpsWidth : 720 pixelsHeight : 400 pixelsDisplay aspect ratio : 16:9Frame rate : 25.000 fpsColor space : YUVChroma subsampling : 4:2:0Bit depth : 8 bitsScan type : ProgressiveCompression mode : LossyBits/(Pixel*Frame) : 0.252Stream size : 995 MiB (67%)Writing library : XviD 73
Audio #1ID : 1Format : AC-3Format/Info : Audio Coding 3Mode extension : CM (complete main)Format settings, Endianness : BigCodec ID : 2000Duration : 1h 16mnBit rate mode : ConstantBit rate : 448 KbpsChannel count : 6 channelsChannel positions : Front: L C R, Side: L R, LFESampling rate : 48.0 KHzBit depth : 16 bitsCompression mode : LossyStream size : 246 MiB (16%)Alignment : Split accross interleaves

Скриншоты:

Спасибо Ibraghim за DVD!Релиз от группы
Показать сообщения:    

Текущее время: 20-Окт 13:05

Часовой пояс: UTC - 1


Вы не можете начинать темы
Вы не можете отвечать на сообщения
Вы не можете редактировать свои сообщения
Вы не можете удалять свои сообщения
Вы не можете голосовать в опросах
Вы не можете прикреплять файлы к сообщениям
Вы не можете скачивать файлы

!ВНИМАНИЕ!
Сайт не предоставляет электронные версии произведений, а занимается лишь коллекционированием и каталогизацией ссылок, присылаемых и публикуемых на форуме нашими читателями. Если вы являетесь правообладателем какого-либо представленного материала и не желаете, чтобы ссылка на него находилась в нашем каталоге, свяжитесь с нами, и мы незамедлительно удалим ее. Файлы для обмена на трекере предоставлены пользователями сайта, и администрация не несет ответственности за их содержание. Просьба не заливать файлы, защищенные авторскими правами, а также файлы нелегального содержания!