Оливер и компания / Oliver & Company (Джордж Скрибнер / George Scribner) [1988, США, мультфильм, BDRip] AVO Сергей Визгунов :: Ивановский Торрент трекер
Важное объявление!
У Нас Все раздачи мультитрекерные, при нуле пиров в релизах, можете смело вставать на закачку!
Статистика раздачи
Размер:     |    Зарегистрирован:     |    Скачан:     |   
Нет
 
     
 
 
Автор Сообщение

HUNTER

Стаж:
4 года 11 месяцев
Сообщений:
66116

Репутация: 101

[+] [-]
Вне форума [Профиль] [ЛС]

Оливер и компания / Oliver & Company
Страна: США
Жанр: мультфильм
Продолжительность: 01:13:32
Год выпуска: 1988
Перевод: Авторский (одноголосый закадровый) Сергей Визгунов
Русские субтитры: нет
Режиссёр: Джордж Скрибнер / George Scribner
Роли озвучивали: Джозеф Лоуренс, Билли Джоэл, Чич Марин, Ричард Маллиган, Роско Ли Браун, Шерил Ли Ральф, Дом ДеЛуис, Торин Блак, Карл Вайнтрауб, Роберт Лоджа
Описание: Рисованный, цветной, полнометражный мультфильм про котенка Оливера, которого никто не купил. Он остался один на страшных улицах Нью-Йорка и выжил, только благодаря друзьям. Героями этой почти детективной истории будут кошки, собаки и люди, ибо бомж Фэйгон, в «дыре» которого нашли приют котенок и несколько бездомных собак, задолжал деньги крупному мафиози.
Лучшим другом и защитником малыша стал фокстерьер Доджер, большой специалист по краже сосисок. Вместе они должны помочь своему хозяину, иначе им грозит стать «закуской для подлых доберманов» у которых еcть ошейники, но нет совести.
Доп. информация: Дорожка с С. Визгуновым синхронизирована и наложена ale_x2008 при помощи Sony Vegas и VirtualDubMod.
За оцифрованную с VHS дорожку благодарим - Hel_ka67

Релиз
Семпл: https://yadi.sk/i/ITta6Dqjvd7DD
Качество: BDRip
Формат: AVI
Видео: XviD build 65, 704x384 (1.83:1), 23.976 fps, 1919 Kbps, 0.30 bit/pixel
Аудио: AC3 Dolby Digital, 48000Hz, 2/0 (mono) ch, 192.00 kbps avg [AVO]
Аудио 2: AC3 Dolby Digital, 48000Hz, 3/2 (L,C,R,l,r) + LFE ch, 448.00 kbps avg [Eng]
Субтитры: отсутствуют

Подробные технические данные

Оливер и компания - Oliver & Company (by ale_x2008).aviFormat : AVIFormat/Info : Audio Video InterleaveFile size : 1.32 GiBDuration : 1 h 13 minOverall bit rate : 2 575 kb/sMovie name : Оливер и компания / Oliver & Company (1988) BDRipDirector : kingsize87Writing application : VirtualDubMod 1.5.10.3 (build 2550/release)Copyright : ale_x2008 | Edich2Comment : RuTracker.org
VideoID : 0Format : MPEG-4 VisualFormat profile : Advanced Simple@L5Format settings, BVOP : 1Format settings, QPel : NoFormat settings, GMC : No warppointsFormat settings, Matrix : CustomCodec ID : XVIDCodec ID/Hint : XviDDuration : 1 h 13 minBit rate : 1 920 kb/sWidth : 704 pixelsHeight : 384 pixelsDisplay aspect ratio : 1.85:1Frame rate : 23.976 (24000/1001) FPSColor space : YUVChroma subsampling : 4:2:0Bit depth : 8 bitsScan type : ProgressiveCompression mode : LossyBits/(Pixel*Frame) : 0.296Stream size : 1 010 MiB (75%)Writing library : XviD 65
Audio #1ID : 1Format : AC-3Format/Info : Audio Coding 3Mode extension : CM (complete main)Format settings, Endianness : BigCodec ID : 2000Duration : 1 h 13 minBit rate mode : ConstantBit rate : 192 kb/sChannel(s) : 2 channelsChannel positions : Front: L RSampling rate : 48.0 kHzFrame rate : 31.250 FPS (1536 spf)Compression mode : LossyStream size : 101 MiB (7%)Alignment : Split accross interleavesInterleave, duration : 42 ms (1.00 video frame)Interleave, preload duratio : 500 ms
Audio #2ID : 2Format : AC-3Format/Info : Audio Coding 3Mode extension : CM (complete main)Format settings, Endianness : BigCodec ID : 2000Duration : 1 h 13 minBit rate mode : ConstantBit rate : 448 kb/sChannel(s) : 6 channelsChannel positions : Front: L C R, Side: L R, LFESampling rate : 48.0 kHzFrame rate : 31.250 FPS (1536 spf)Compression mode : LossyStream size : 236 MiB (17%)Alignment : Split accross interleavesInterleave, duration : 42 ms (1.00 video frame)Interleave, preload duratio : 500 ms

Скриншоты



_________________
Показать сообщения:    

Текущее время: Сегодня 07:28

Часовой пояс: GMT



Вы не можете начинать темы
Вы не можете отвечать на сообщения
Вы не можете редактировать свои сообщения
Вы не можете удалять свои сообщения
Вы не можете голосовать в опросах
Вы не можете прикреплять файлы к сообщениям
Вы не можете скачивать файлы