Важное объявление!
У Нас Все раздачи мультитрекерные, при нуле пиров в релизах, можете смело вставать на закачку!
 
Автор Сообщение

HUNTER

Стаж:
4 года 5 месяцев
Сообщений:
60874

Репутация: 101

[+] [-]
Вне форума [Профиль] [ЛС]

Оливер и Компания / Oliver & Company
«The first Disney movie with attitude»
-
Страна: США
Жанр: приключения, комедия, мюзикл
Продолжительность: 01:13:43
Год выпуска: 1988
Перевод: Профессиональный (дублированный)
Русские субтитры: нет-Режиссёр: Джордж Скрибнер / George Scribner
Сценарий: Тим Дисней / Tim Disney, Джим Кокс / Jim Cox
Художник: Дэн Хансен / Dan Hansen
Композитор: Дж. А.С. Редфорд / J.A.C. Redford-Роли озвучивали:
Джозеф Лоуренс (Oliver, озвучка), Билли Джоэл (Dodger, озвучка), Чич Марин (Tito, озвучка), Ричард Маллиган (Einstein, озвучка), Роско Ли Браун (Francis, озвучка), Шерил Ли Ральф (Rita, озвучка), Дом ДеЛуис (Fagin, озвучка), Торин Блэк (Roscoe, озвучка), Карл Вентрауб (Desoto, озвучка), Роберт Лоджа (Sykes, озвучка).-Мировая премьера: 13 ноября 1988
Релиз на DVD: 21 августа 2008, «Buena Vista/Walt Disney»
Релиз на Blu-ray: 13 августа 2013, «Уолт Дисней Компани СНГ»
-Описание:
Созданный по мотивам бессмертного романа Чарльза Диккенса "Оливер Твист", "Оливер и Компания" является блестящим примером анимационной классики студии Уолта Диснея. История начинается со знакомства Оливера, осиротевшего котёнка, с Доджером, весёлым дворнягой из нью-йоркского квартала. Вскоре Оливера забирает на воспитание милая Дженни, одинокая маленькая девочка. Но банда хулиганов во главе с Сайксом пытается разлучить Оливера и Дженни. Теперь Оливеру, Доджеру и его закадычным друзьям предстоит победить злодеев в захватывающей дух погоне!-Рейтинг
kinopoisk.ru: 7.951 (5194)
imdb.com: 6.70 (26 403)
MPAA: G - Нет возрастных ограничений-Качество: BDRip | thx: порошков
Формат: AVI ///СОВМЕСТИМО С БЫТОВЫМИ ПЛЕЕРАМИ///→ //SAMPLE//
Видео: 704x384 (1.83:1), 23.976 fps, XviD build 65 ~1281 kbps avg, 0.20 bit/pixel
Аудио: 48.0 kHz, AC3 Dolby Digital, 2/0 (L,R) ch, ~128.00 kbps avg | DUB
Субтитры: Отсутствуют
Размер: 745.28 Mb (1/6 DVD-R)
-

Подробные технические данные

ОбщееПолное имя : A:\Фильмы\OLIVER_AND_COMPANY.1988.BDRip.XviD.745Mb.AC3.aviФормат : AVIФормат/Информация : Audio Video InterleaveРазмер файла : 745 МбайтПродолжительность : 1 ч. 13 м.Общий поток : 1413 Кбит/секПрограмма кодирования : VirtualDubMod 1.5.10.3 | www.virtualdub-fr.org || (build 2550/release)Библиотека кодирования : VirtualDubMod build 2550/release
ВидеоИдентификатор : 0Формат : MPEG-4 VisualПрофиль формата : Advanced Simple@L5Параметр BVOP формата : 1Параметр QPel формата : НетПараметр GMC формата : Без точки переходаПараметр матрицы формата : ВыборочнаяИдентификатор кодека : XVIDИдентификатор кодека/Подсказка : XviDПродолжительность : 1 ч. 13 м.Битрейт : 1282 Кбит/секШирина : 704 пикселяВысота : 384 пикселяСоотношение сторон : 1,83:1Частота кадров : 23,976 кадра/секЦветовое пространство : YUVСубдискретизация насыщенности : 4:2:0Битовая глубина : 8 битТип развёртки : ПрогрессивнаяМетод сжатия : С потерямиБит/(Пиксели*Кадры) : 0.198Размер потока : 676 Мбайт (91%)Библиотека кодирования : XviD 65
АудиоИдентификатор : 1Формат : AC-3Формат/Информация : Audio Coding 3Расширение режима : CM (complete main)Параметр Endianness формата : BigИдентификатор кодека : 2000Продолжительность : 1 ч. 10 м.Вид битрейта : ПостоянныйБитрейт : 128 Кбит/секКаналы : 2 каналаРасположение каналов : Front: L RЧастота : 48,0 КГцБитовая глубина : 16 битМетод сжатия : С потерямиЗадержка видео : 1 с. 760 мс.Размер потока : 64,6 Мбайт (9%)Выравнивание : Разделение по промежуткамПродолжительность промежутка : 44 мс. (1,05 видеокадр)Время предзагрузки промежутка : 512 мс.

Скриншоты

Цитата:
Цитата:

  • Дубляж взят с DVDRip

_________________
Показать сообщения:    

Текущее время: Сегодня 05:53

Часовой пояс: GMT



Вы не можете начинать темы
Вы не можете отвечать на сообщения
Вы не можете редактировать свои сообщения
Вы не можете удалять свои сообщения
Вы не можете голосовать в опросах
Вы не можете прикреплять файлы к сообщениям
Вы не можете скачивать файлы
Наши партнеры: интернет магазин Ивановского трикотажа textilla.ru