Ивановский Торрент трекер
Яндекс.Погода
 

[Цитировать]
HUNTER

Оливер и компания / Oliver & Company- Год выпуска: 1988
Выпущено: США
Жанр: мультфильм, мюзикл, приключения, семейный
Продолжительность: 01:13:32
Перевод: Профессиональный (полное дублирование)
+ Оригинальная звуковая дорожка
Субтитры: Русские (полные, форсированные), Английские (полные, форсированные: 2 варианта, SDH) (внешние srt*) (спасибо yaroslaigor)-Режиссер: Джордж Скрибнер / George Scribner
В ролях: Джозеф Лоуренс, Билли Джоэл, Чич Марин, Ричард Маллиган, Роско Ли Браун, Шерил Ли Ральф, Дом ДеЛуис, Торин Блак, Карл Вентрауб, Роберт Лоджа
О фильме: Рисованный, цветной, полнометражный мультфильм про котенка Оливера, которого никто не купил. Он остался один на страшных улицах Нью-Йорка и выжил, только благодаря друзьям. Героями этой почти детективной истории будут кошки, собаки и люди, ибо бомж Спайк, в «дыре» которого нашли приют котенок и несколько бездомных собак, задолжал деньги крупному мафиози.
Лучшим другом и защитником малыша стал фокстерьер Доджер, большой специалист по краже сосисок. Вместе они должны помочь своему хозяину, иначе им грозит стать «закуской для подлых доберманов» у которых еcть ошейники, но нет совести.
Релиз:
Автор: kingsize87
Качество: BDRip (источник: / Blu-Ray EUR / 1080р)
Формат: AVI
Видео: 704x384 (1.83:1), 23,976 fps, XviD build 65 ~1919 kbps avg, 0.30 bit/pixel
Аудио 1: 48 kHz, AC3 Dolby Digital, 3/2 (L,C,R,l,r) + LFE ch, ~448.00 kbps avg rus
Аудио 2: 48 kHz, AC3 Dolby Digital, 3/2 (L,C,R,l,r) + LFE ch, ~448.00 kbps avg eng
Размер: 1488.95 Mb (1/3 DVD-R)- -

Mi


Формат : AVI
Формат/Информация : Audio Video Interleave
Размер файла : 1,45 Гбайт
Продолжительность : 1 ч. 13 м.
Общий поток : 2831 Кбит/сек
Название фильма : Оливер и компания / Oliver & Company (1988) BDRip
Режиссёр : kingsize87
Программа кодирования : VirtualDubMod 1.5.10.2 (build 2540/release)
Правообладатель : HQCLUB
Примечание : 22.07.2013
Видео
Идентификатор : 0
Формат : MPEG-4 Visual
Профиль формата : Advanced Simple@L5
Параметр BVOP формата : 1
Параметр QPel формата : Нет
Параметр GMC формата : Без точки перехода
Параметр матрицы формата : Выборочная
Идентификатор кодека : XVID
Идентификатор кодека/Подсказка : XviD
Продолжительность : 1 ч. 13 м.
Битрейт : 1920 Кбит/сек
Ширина : 704 пикселя
Высота : 384 пикселя
Соотношение сторон : 1,85:1
Частота кадров : 23,976 кадра/сек
Цветовое пространство : YUV
Субдискретизация насыщенности : 4:2:0
Битовая глубина : 8 бит
Тип развёртки : Прогрессивная
Метод сжатия : С потерями
Бит/(Пиксели*Кадры) : 0.296
Размер потока : 1010 Мбайт (68%)
Библиотека кодирования : XviD 65
Аудио #1
Идентификатор : 1
Формат : AC-3
Формат/Информация : Audio Coding 3
Расширение режима : CM (complete main)
Параметр Endianness формата : Big
Идентификатор кодека : 2000
Продолжительность : 1 ч. 13 м.
Вид битрейта : Постоянный
Битрейт : 448 Кбит/сек
Каналы : 6 каналов
Расположение каналов : Front: L C R, Side: L R, LFE
Частота : 48,0 КГц
Битовая глубина : 16 бит
Метод сжатия : С потерями
Размер потока : 236 Мбайт (16%)
Выравнивание : Разделение по промежуткам
Продолжительность промежутка : 42 мс. (1,00 видеокадр)
Время предзагрузки промежутка : 500 мс.
Аудио #2
Идентификатор : 2
Формат : AC-3
Формат/Информация : Audio Coding 3
Расширение режима : CM (complete main)
Параметр Endianness формата : Big
Идентификатор кодека : 2000
Продолжительность : 1 ч. 13 м.
Вид битрейта : Постоянный
Битрейт : 448 Кбит/сек
Каналы : 6 каналов
Расположение каналов : Front: L C R, Side: L R, LFE
Частота : 48,0 КГц
Битовая глубина : 16 бит
Метод сжатия : С потерями
Размер потока : 236 Мбайт (16%)
Выравнивание : Разделение по промежуткам
Продолжительность промежутка : 42 мс. (1,00 видеокадр)
Время предзагрузки промежутка : 500 мс.
-
Показать сообщения:    

Текущее время: 23-Окт 14:28

Часовой пояс: UTC - 1


Вы не можете начинать темы
Вы не можете отвечать на сообщения
Вы не можете редактировать свои сообщения
Вы не можете удалять свои сообщения
Вы не можете голосовать в опросах
Вы не можете прикреплять файлы к сообщениям
Вы не можете скачивать файлы

!ВНИМАНИЕ!
Сайт не предоставляет электронные версии произведений, а занимается лишь коллекционированием и каталогизацией ссылок, присылаемых и публикуемых на форуме нашими читателями. Если вы являетесь правообладателем какого-либо представленного материала и не желаете, чтобы ссылка на него находилась в нашем каталоге, свяжитесь с нами, и мы незамедлительно удалим ее. Файлы для обмена на трекере предоставлены пользователями сайта, и администрация не несет ответственности за их содержание. Просьба не заливать файлы, защищенные авторскими правами, а также файлы нелегального содержания!