Ивановский Торрент трекер
Яндекс.Погода
 

[Цитировать]
HUNTER

Олененок Рудольф / Rudolph The Red-Nosed Reindeer
Страна: США
Жанр: Семейный
Продолжительность: 00:51:47
Год выпуска: 1964
Перевод: Профессиональный (многоголосый закадровый)
Русские субтитры: нет
Режиссёр: Кизо Нагашима, Ларри Роемер / Kizo Nagashima, Larry Roemer
Роли озвучивали: Берл Ивс \ Burl Ives (Snowman), Билли Мей Ричардс \ Billie Mae Richards (Rudolph), Пол Солс \ Paul Soles (Hermey), Стэн Фрэнцис \ Stan Francis (Santa)
Описание: Полнометражный цветной мультфильм о сказочном олененке с симпатичным красным носиком по имени Рудольф и его невероятных приключениях. Если бы не его смелость и решительность, то, скорее всего Рождество, было бы отменено! Но в самый последний миг Деду Морозу посчастливилось встретить на своем пути олененка Рудольфа и провести с его помощью свои санки, нагруженные подарками сквозь жуткую Пургу. До этого нашему Рудольфу как-то не очень везло в жизни, так как его носик был не похож на носы других оленей и ему приходилось отбиваться от своих братьев. Но после этого случая Рудольф становится героем, он смело прорывается сквозь метель и помогает Дедушке Морозу вовремя добраться к детишкам со своими подарками...
Семпл: http://multi-up.com/1060685
Качество: BDRip 1080p
Формат: MKV
Видео: AVC, 1456*1080,23.976 fps, 11.5 Mbps
Аудио: MP3, 44.1 KHz, 2 ch, 320 kbps, [russian]
Аудио 2: AC3, 48.0 KHz, 6 ch,640 kbps, [english]
Субтитры: отсутствуют

Подробные технические данные

Complete name : C:\Disk E\Rudolph1964.1080p\Rudolph.the.Red-Nosed.Reindeer.1964.1080p.Bluray.mkvFormat : MatroskaFormat version : Version 4 / Version 2File size : 4.49 GiBDuration : 51mn 47sOverall bit rate : 12.4 MbpsEncoded date : UTC 2015-07-30 12:23:21Writing application : mkvmerge v8.2.0 ('World of Adventure') 64bitWriting library : libebml v1.3.1 + libmatroska v1.4.2DURATION : 00:51:46.116000000NUMBER_OF_FRAMES : 118906NUMBER_OF_BYTES : 124244636_STATISTICS_WRITING_APP : mkvmerge v8.2.0 ('World of Adventure') 64bit_STATISTICS_WRITING_DATE_UTC : 2015-07-30 12:23:21_STATISTICS_TAGS : BPS DURATION NUMBER_OF_FRAMES NUMBER_OF_BYTES
VideoID : 1Format : AVCFormat/Info : Advanced Video CodecFormat profile : High@L4.1Format settings, CABAC : YesFormat settings, ReFrames : 5 framesCodec ID : V_MPEG4/ISO/AVCDuration : 51mn 47sBit rate : 11.5 MbpsWidth : 1 456 pixelsHeight : 1 080 pixelsDisplay aspect ratio : 4:3Frame rate mode : ConstantFrame rate : 23.976 fpsColor space : YUVChroma subsampling : 4:2:0Bit depth : 8 bitsScan type : ProgressiveBits/(Pixel*Frame) : 0.304Stream size : 4.05 GiB (90%)Writing library : x264 core 105 r1732 2b04482Encoding settings : cabac=1 / ref=5 / deblock=1:-2:-2 / analyse=0x3:0x113 / me=esa / subme=9 / psy=1 / psy_rd=1.00:0.00 / mixed_ref=1 / me_range=24 / chroma_me=1 / trellis=1 / 8x8dct=1 / cqm=0 / deadzone=21,11 / fast_pskip=0 / chroma_qp_offset=-2 / threads=20 / sliced_threads=0 / nr=0 / decimate=1 / interlaced=0 / constrained_intra=0 / bframes=5 / b_pyramid=2 / b_adapt=1 / b_bias=0 / direct=3 / weightb=1 / open_gop=0 / weightp=2 / keyint=250 / keyint_min=23 / scenecut=40 / intra_refresh=0 / rc_lookahead=40 / rc=2pass / mbtree=1 / bitrate=11454 / ratetol=1.0 / qcomp=0.60 / qpmin=10 / qpmax=51 / qpstep=4 / cplxblur=20.0 / qblur=0.5 / ip_ratio=1.40 / aq=1:1.00Language : EnglishDefault : NoForced : NoDURATION : 00:51:45.561000000NUMBER_OF_FRAMES : 74459NUMBER_OF_BYTES : 4446929718_STATISTICS_WRITING_APP : mkvmerge v8.2.0 ('World of Adventure') 64bit_STATISTICS_WRITING_DATE_UTC : 2015-07-30 12:23:21_STATISTICS_TAGS : BPS DURATION NUMBER_OF_FRAMES NUMBER_OF_BYTES
Audio #1ID : 2Format : AC-3Format/Info : Audio Coding 3Mode extension : CM (complete main)Format settings, Endianness : BigCodec ID : A_AC3Duration : 51mn 47sBit rate mode : ConstantBit rate : 640 KbpsChannel(s) : 6 channelsChannel positions : Front: L C R, Side: L R, LFESampling rate : 48.0 KHzBit depth : 16 bitsCompression mode : LossyStream size : 237 MiB (5%)Default : NoForced : No
Audio #2ID : 3Format : MPEG AudioFormat version : Version 1Format profile : Layer 3Codec ID : A_MPEG/L3Codec ID/Hint : MP3Duration : 51mn 47sBit rate mode : ConstantBit rate : 320 KbpsChannel(s) : 2 channelsSampling rate : 44.1 KHzCompression mode : LossyDelay relative to video : 1s 500msStream size : 119 MiB (3%)Language : RussianDefault : YesForced : No

Скриншоты

Показать сообщения:    

Текущее время: 24-Сен 07:36

Часовой пояс: UTC - 1


Вы не можете начинать темы
Вы не можете отвечать на сообщения
Вы не можете редактировать свои сообщения
Вы не можете удалять свои сообщения
Вы не можете голосовать в опросах
Вы не можете прикреплять файлы к сообщениям
Вы не можете скачивать файлы

!ВНИМАНИЕ!
Сайт не предоставляет электронные версии произведений, а занимается лишь коллекционированием и каталогизацией ссылок, присылаемых и публикуемых на форуме нашими читателями. Если вы являетесь правообладателем какого-либо представленного материала и не желаете, чтобы ссылка на него находилась в нашем каталоге, свяжитесь с нами, и мы незамедлительно удалим ее. Файлы для обмена на трекере предоставлены пользователями сайта, и администрация не несет ответственности за их содержание. Просьба не заливать файлы, защищенные авторскими правами, а также файлы нелегального содержания!