Ивановский Торрент трекер
Яндекс.Погода
Статистика раздачи
Размер:  7.38 GB   |    Зарегистрирован:  3 года 1 месяц   |    Скачан:  0 раз

Полного источника не было: Никогда

 
     
 
 
 

[Цитировать]
HUNTER

Октагон / The Octagon- Год выпуска: 1980
Страна: США
Жанр: Боевик
Продолжительность: 01:41:40
Перевод 1: Профессиональный (многоголосый закадровый, НТВ+)
Перевод 2: Авторский одноголосый (Живов)
Оригинальная аудиодорожка: английский
Cубтитры: нет
Навигация по главам: есть
Режиссер: Эрик Карсон / Eric Karson
В ролях: Чак Норрис /Chuck Norris/, Кэрен Карлсон /Karen Carlson/, Ли Ван Клиф /Lee Van Cleef/, Арт Хиндл /Art Hindle/, Джек Картер /Jack Carter/, Кэрол Багдасарян /Carol Bagdasarian/, Тадаши Ямашита /Tadashi Yamashita/
Описание: Богатая дама Джастин насмерть напугана: ей угрожает банда головорезов. Единственное, что может ее спасти — это телохранитель, самый лучший. И она находит его. Но Скотта Джеймса, бывшего чемпиона по каратэ, не так-то легко уговорить. Даже за большие деньги. Он соглашается, лишь узнав, что руководит бандитами его заклятый враг Тадаши Ямашита, с которым вместе Скотт учился боевым искусствам.
Качество: BDRip 720p
Формат: MKV
Видео: H.264/AVC, 1280х720, 23.976 fps, ~9070 kbps
Аудио #1: Русский AC3 2.0, 48 kHz, 192 kbps (НТВ+)
Аудио #2: Русский AC3 5.1, 48 kHz, 448 kbps (Живов)
Аудио #3: Английский AC3 5.1, 48 kHz, 448 kbps
>SAMPLE<

MediaInfo

General
Unique ID : 205414370543456266147207019207455319865 (0x9A895E64AD52C230935372A522BAA739)
Complete name : D:\++TORRENT++\+++UP+++\Октагон (The Octagon) [1980, BDRip 720p, MVO + AVO + Orig].mkv
Format : Matroska
Format version : Version 2
File size : 7.38 GiB
Duration : 1h 44mn
Overall bit rate : 10.2 Mbps
Encoded date : UTC 2014-11-15 07:59:30
Writing application : mkvmerge v5.8.0 ('No Sleep / Pillow') built on Sep 2 2012 15:37:04
Writing library : libebml v1.2.3 + libmatroska v1.3.0
Attachment : Yes
Video
ID : 1
Format : AVC
Format/Info : Advanced Video Codec
Format profile : High@L4.1
Format settings, CABAC : Yes
Format settings, ReFrames : 8 frames
Codec ID : V_MPEG4/ISO/AVC
Duration : 1h 44mn
Bit rate : 8 869 Kbps
Width : 1 280 pixels
Height : 720 pixels
Display aspect ratio : 16:9
Frame rate : 23.976 fps
Color space : YUV
Chroma subsampling : 4:2:0
Bit depth : 8 bits
Scan type : Progressive
Bits/(Pixel*Frame) : 0.401
Stream size : 6.44 GiB (87%)
Title : The.Octagon.1980.BDRip.720p-CactusKnight
Writing library : x264 core 142 r2431 ac76440
Encoding settings : cabac=1 / ref=8 / deblock=1:-3:-3 / analyse=0x3:0x113 / me=umh / subme=11 / psy=1 / psy_rd=1.00:0.05 / mixed_ref=1 / me_range=32 / chroma_me=1 / trellis=2 / 8x8dct=1 / cqm=0 / deadzone=21,11 / fast_pskip=1 / chroma_qp_offset=-3 / threads=6 / lookahead_threads=1 / sliced_threads=0 / nr=0 / decimate=1 / interlaced=0 / bluray_compat=0 / constrained_intra=0 / bframes=10 / b_pyramid=2 / b_adapt=2 / b_bias=0 / direct=1 / weightb=1 / open_gop=0 / weightp=2 / keyint=250 / keyint_min=23 / scenecut=40 / intra_refresh=0 / rc_lookahead=50 / rc=crf / mbtree=0 / crf=18.5 / qcomp=0.60 / qpmin=0 / qpmax=69 / qpstep=4 / vbv_maxrate=50000 / vbv_bufsize=62500 / crf_max=0.0 / nal_hrd=none / filler=0 / ip_ratio=1.40 / pb_ratio=1.30 / aq=1:0.90
Language : English
Audio #1
ID : 2
Format : AC-3
Format/Info : Audio Coding 3
Mode extension : CM (complete main)
Codec ID : A_AC3
Duration : 1h 44mn
Bit rate mode : Constant
Bit rate : 192 Kbps
Channel(s) : 2 channels
Channel positions : Front: L R
Sampling rate : 48.0 KHz
Bit depth : 16 bits
Compression mode : Lossy
Stream size : 143 MiB (2%)
Title : MVO (HTB+)
Language : Russian
Audio #2
ID : 3
Format : AC-3
Format/Info : Audio Coding 3
Mode extension : CM (complete main)
Codec ID : A_AC3
Duration : 1h 44mn
Bit rate mode : Constant
Bit rate : 448 Kbps
Channel(s) : 6 channels
Channel positions : Front: L C R, Side: L R, LFE
Sampling rate : 48.0 KHz
Bit depth : 16 bits
Compression mode : Lossy
Stream size : 333 MiB (4%)
Title : AVO (Zhivov)
Language : Russian
Audio #3
ID : 4
Format : AC-3
Format/Info : Audio Coding 3
Mode extension : CM (complete main)
Codec ID : A_AC3
Duration : 1h 44mn
Bit rate mode : Constant
Bit rate : 448 Kbps
Channel(s) : 6 channels
Channel positions : Front: L C R, Side: L R, LFE
Sampling rate : 48.0 KHz
Bit depth : 16 bits
Compression mode : Lossy
Stream size : 333 MiB (4%)
Language : English
Menu
00:00:00.000 : en:Arrival
00:06:16.200 : en:Ninja's Revenge
00:10:07.501 : en:First Teaching
00:11:21.401 : en:They Weren't Terrorists
00:12:05.201 : en:Mercenary's Point of View
00:15:09.302 : en:Reasons Not to Compete
00:16:09.402 : en:Damsel Not in Distress
00:20:39.402 : en:What to Do With a Terrorist
00:22:58.102 : en:The Beginning of the Truth
00:28:37.502 : en:Digging for the Truth
00:31:33.702 : en:The Past Becomes the Present
00:37:00.203 : en:Finding the Way In
00:40:39.403 : en:The Inner Truth
00:47:49.003 : en:Why Can't They Begin?
00:56:20.403 : en:Last Pieces of the Puzzle
01:01:48.203 : en:The Decision Is Made
01:08:11.204 : en:No Turning Back Now
01:13:18.204 : en:Finding the Octagon
01:21:09.006 : en:The Assault Against Evil
01:27:51.606 : en:Earning the Right to Fight
01:31:03.306 : en:Conquest Without Victory
01:35:19.306 : en:Revolt Against the Ninja
01:39:26.306 : en:Death of Evil
01:41:28.007 : en:Credits

x264 log

avs [info]: 1280x720p 1:1 @ 24000/1001 fps (cfr)
x264 [info]: using SAR=1/1
x264 [info]: using cpu capabilities: MMX2 SSE2Fast SSSE3 SSE4.2
x264 [info]: profile High, level 4.1
x264 [info]: frame I:1157 Avg QP:18.63 size:127820
x264 [info]: frame P:24155 Avg QP:19.78 size: 78395
x264 [info]: frame B:124305 Avg QP:21.96 size: 40493
x264 [info]: consecutive B-frames: 1.1% 0.6% 1.9% 8.4% 14.7% 19.8% 15.9% 17.6% 11.5% 5.7% 2.8%
x264 [info]: mb I I16..4: 1.2% 92.3% 6.5%
x264 [info]: mb P I16..4: 0.1% 26.9% 0.7% P16..4: 23.7% 33.9% 14.2% 0.0% 0.0% skip: 0.6%
x264 [info]: mb B I16..4: 0.0% 4.0% 0.1% B16..8: 41.2% 26.1% 7.4% direct:10.8% skip:10.5% L0:45.5% L1:43.8% BI:10.7%
x264 [info]: 8x8 transform intra:97.1% inter:62.7%
x264 [info]: coded y,uvDC,uvAC intra: 99.0% 79.7% 47.4% inter: 62.7% 33.7% 3.6%
x264 [info]: i16 v,h,dc,p: 35% 20% 13% 32%
x264 [info]: i8 v,h,dc,ddl,ddr,vr,hd,vl,hu: 8% 6% 13% 11% 14% 13% 12% 12% 12%
x264 [info]: i4 v,h,dc,ddl,ddr,vr,hd,vl,hu: 9% 6% 4% 10% 16% 16% 14% 13% 12%
x264 [info]: i8c dc,h,v,p: 38% 27% 20% 15%
x264 [info]: Weighted P-Frames: Y:10.4% UV:5.5%
x264 [info]: ref P L0: 37.7% 10.2% 18.3% 9.5% 7.7% 6.6% 5.5% 4.0% 0.5% 0.0%
x264 [info]: ref B L0: 67.4% 13.6% 8.2% 4.5% 3.7% 1.9% 0.7%
x264 [info]: ref B L1: 89.1% 10.9%
x264 [info]: kb/s:9070.04
x264 [total]: encoded 149617 frames, 2.36 fps, 9070.04 kb/s

Скриншоты

[iv-torrents.ru].t36842.torrent
Торрент: Зарегистрирован [ 2014-11-16 21:32 ] · E632E45D9EB5B69449FB6386EB1D7D797F93F4E0

Скачать .torrent

Скачать

37 KB

Статус: проверено
Скачан: 0 раз
Размер: 7.38 GB
terms.php
Похожие темы


Показать сообщения:    

Текущее время: 17-Дек 11:51

Часовой пояс: UTC ± 0


Вы не можете начинать темы
Вы не можете отвечать на сообщения
Вы не можете редактировать свои сообщения
Вы не можете удалять свои сообщения
Вы не можете голосовать в опросах
Вы не можете прикреплять файлы к сообщениям
Вы можете скачивать файлы

!ВНИМАНИЕ!
Сайт не предоставляет электронные версии произведений, а занимается лишь коллекционированием и каталогизацией ссылок, присылаемых и публикуемых на форуме нашими читателями. Если вы являетесь правообладателем какого-либо представленного материала и не желаете, чтобы ссылка на него находилась в нашем каталоге, свяжитесь с нами, и мы незамедлительно удалим ее. Файлы для обмена на трекере предоставлены пользователями сайта, и администрация не несет ответственности за их содержание. Просьба не заливать файлы, защищенные авторскими правами, а также файлы нелегального содержания!