Ивановский Торрент трекер
Яндекс.Погода
 

[Цитировать]
HUNTER

Окись / Powder Blue- Страна: США
Студия: «Top Film Distribution»
Жанр: Драма, Криминал
Год выпуска: 2008
Продолжительность: 01:41:56-Перевод: Профессиональный (многоголосый закадровый)
Перевод 2: Двухголосый закадровый (Сладкая парочка)
Cубтитры: английские
Оригинальная аудиодорожка: английский
Режиссер: Тимоти Линх Буи / Timothy Linh Bui
В ролях: Джессика Бил, Рэй Лиотта, Лиза Кудроу, Патрик Суэйзи, Форест Уитакер, Джефф Вульф, Мэнди Джун Турпин, Дон Суэйзи, Майк Су, Алехандро Ромеро,
Эдди Редмэйн, Марк Рэйнер, Кейси Потит, Дэнди Пэм, Кори Пэтт, Рави Патель, Навид Негабан, Рики Линдхоум, Крис Кристофферсон, Джо Холт,
Джесси Хенеке, Джефф Холлмэн, Стелла Дойл, Рико Деверо, Чад Кристофер, Франсуа Чау, Чандлер Кентербери
Описание: Главные герои картины — четверо маргиналов — гробовщик, бывший жулик, бывший священник с суицидальными наклонностями и стриптизерша,
которых причудливое стечение обстоятельств сводит вместе в сочельник. Лиотта сыграет освобождённого после 25-летнего заключения человека, нашедшего свою давно потерянную дочь.-Доп. информация: ### Этот DVD был здесь на треккере
Бонусы: Разбивка по главам, опции, реклама
Меню: Русское, анимированное, озвученное

Сэмпл: Скачать
Тип релиза: DVD9 (Custom)
Контейнер: DVD-Video
Видео: MPEG, PAL 16:9 (720x576) VBR, ~8750 Кбит/сек
Аудио: Dolby AC3, 6 ch, 384 Кбит/сек, 48,0 КГц -(Русская) Многоголосый закадровый
Аудио 2: Dolby AC3, 6 ch, 448 Кбит/сек, 48,0 КГц -(Английская) Оригинал
Аудио 3: Dolby AC3, 2 ch, 192 Кбит/сек, 48,0 КГц -(Русская) Двухголосый - Сладкая парочка-

MediaInfo

Формат : MPEG-PS
Размер файла : 1024 Мбайт
Продолжительность : 14 м.
Режим общего битрейта : Переменный
Общий поток : 9890 Кбит/сек
Видео
Идентификатор : 224 (0xE0)
Формат : MPEG Video
Версия формата : Version 2
Профиль формата : Main@Main
Параметр BVOP формата : Да
Параметр матрицы формата : Выборочная
Параметр GOP формата : M=3, N=15
Format_Settings_PictureStructure : Frame
Продолжительность : 14 м.
Вид битрейта : Переменный
Битрейт : 8750 Кбит/сек
Ширина : 720 пикселей
Высота : 576 пикселей
Соотношение сторон : 16:9
Частота кадров : 25,000 кадров/сек
Стандарт вещания : PAL
Цветовое пространство : YUV
Субдискретизация насыщенности : 4:2:0
Битовая глубина : 8 бит
Тип развёртки : Чересстрочная
Порядок развёртки : Верхнее поле первое
Метод сжатия : С потерями
Бит/(Пиксели*Кадры) : 0.844
Временной код первого кадра : 00:00:00:00
Оригинал временного кода : Group of pictures header
Размер потока : 898 Мбайт (88%)
Gop_OpenClosed_FirstFrame : Closed
Аудио #1
Идентификатор : 189 (0xBD)-128 (0x80)
Формат : AC-3
Формат/Информация : Audio Coding 3
Расширение режима : CM (complete main)
Параметр Endianness формата : Big
Режим смешивания : DVD-Video
Продолжительность : 14 м.
Вид битрейта : Постоянный
Битрейт : 384 Кбит/сек
Каналы : 6 каналов
Расположение каналов : Front: L C R, Side: L R, LFE
Частота : 48,0 КГц
Битовая глубина : 16 бит
Метод сжатия : С потерями
Размер потока : 39,7 Мбайт (4%)
Аудио #2
Идентификатор : 189 (0xBD)-129 (0x81)
Формат : AC-3
Формат/Информация : Audio Coding 3
Расширение режима : CM (complete main)
Параметр Endianness формата : Big
Режим смешивания : DVD-Video
Продолжительность : 14 м.
Вид битрейта : Постоянный
Битрейт : 448 Кбит/сек
Каналы : 6 каналов
Расположение каналов : Front: L C R, Side: L R, LFE
Частота : 48,0 КГц
Битовая глубина : 16 бит
Метод сжатия : С потерями
Размер потока : 46,4 Мбайт (5%)
Аудио #3
Идентификатор : 189 (0xBD)-130 (0x82)
Формат : AC-3
Формат/Информация : Audio Coding 3
Расширение режима : CM (complete main)
Параметр Endianness формата : Big
Режим смешивания : DVD-Video
Продолжительность : 14 м.
Вид битрейта : Постоянный
Битрейт : 192 Кбит/сек
Каналы : 2 канала
Расположение каналов : Front: L R
Частота : 48,0 КГц
Битовая глубина : 16 бит
Метод сжатия : С потерями
Размер потока : 19,9 Мбайт (2%)
***********************************************************************
Title: Powder.Blue .2009.DVD9
Size: 7.18 Gb ( 7 532 212,00 KBytes ) - DVD-9
Enabled regions: 1, 2, 3, 4, 5, 6, 7, 8
VTS_01 :
Play Length: 01:41:56
Video: PAL 16:9 (720x576) VBR, Auto Letterboxed
Audio:
Russian (Dolby AC3, 6 ch)
English (Dolby AC3, 6 ch)
Russian (Dolby AC3, 2 ch)
Subtitles:
English
VTS_02 :
Play Length: 00:01:44
Video: PAL 16:9 (720x576) VBR, Auto Letterboxed
Audio:
English (Dolby AC3, 2 ch)
* Menus Information *
VIDEO_TS Menu
Video:
NTSC 4:3 (720x480) VBR
Auto Pan&Scan, Auto Letterboxed
Language Unit :
Title Menu
VTS_01 Menu
Video:
PAL 16:9 (720x576) VBR
Auto Letterboxed
Audio:
Not specified (Dolby AC3, 2 ch)
English Language Unit :
Root Menu
Angle menu
VTS_02 Menu
Video:
NTSC 4:3 (720x480) VBR
Auto Pan&Scan, Auto Letterboxed
English Language Unit :
Root Menu
***************************************

Скриншоты меню

Скриншоты



-
Показать сообщения:    

Текущее время: 17-Окт 19:35

Часовой пояс: UTC - 1


Вы не можете начинать темы
Вы не можете отвечать на сообщения
Вы не можете редактировать свои сообщения
Вы не можете удалять свои сообщения
Вы не можете голосовать в опросах
Вы не можете прикреплять файлы к сообщениям
Вы не можете скачивать файлы

!ВНИМАНИЕ!
Сайт не предоставляет электронные версии произведений, а занимается лишь коллекционированием и каталогизацией ссылок, присылаемых и публикуемых на форуме нашими читателями. Если вы являетесь правообладателем какого-либо представленного материала и не желаете, чтобы ссылка на него находилась в нашем каталоге, свяжитесь с нами, и мы незамедлительно удалим ее. Файлы для обмена на трекере предоставлены пользователями сайта, и администрация не несет ответственности за их содержание. Просьба не заливать файлы, защищенные авторскими правами, а также файлы нелегального содержания!