Ивановский Торрент трекер
Яндекс.Погода
 

[Цитировать]
HUNTER

Окаменевший лес / The Petrified Forest
-Страна: США
Жанр: драма, мелодрама, криминал
Год выпуска: 1936
Продолжительность: 01:22:20-Перевод 1: Профессиональный (многоголосый закадровый) Светла
Перевод 2: Профессиональный (двухголосый закадровый) Film Prestige
Перевод 3: Профессиональный (двухголосый закадровый) Культура-Cубтитры: русские, английские
Оригинальная аудиодорожка: английский-Режиссер: Арчи Майо / Archie Mayo-В ролях: Лесли Ховард, Бетт Дэвис, Женев Тобин, Дик Форан, Хамфри Богарт, Джо Сойер, Портер Холл, Чарли Грейпвин, Пол Харви, Эдди Акуфф
Описание:
Элан Скуайр — писатель-идеалист, уставший от грубой жестокости жизни, без цента в кармане идет по шоссе в пустыне Аризоны. Остановившись в ресторане на старой бензоколонке ворчливого Джейсона Мэйпла, Элан знакомится и влюбляется в Габриэллу, дочь Мэйпла.
Девушка мечтает учиться в Париже. Когда на бензозаправку подъезжают супруги Чизхолм, Габриэлла уговаривает их взять Элана с собой в Калифорнию. Но им не удалось далеко уехать: безжалостный гангстер Дьюк Мэнти и его сообщники, совершившие убийства в Оклахоме, берут всех в заложники.
Писатель называет гангстера «последним великим апостолом грубого индивидуализма» и заключает с ним договор, — просит, чтобы тот застрелил его перед отъездом…-Сэмпл: Скачать-Тип релиза: BDRip 720p
Контейнер: MKV-Видео: 986x720 (4:3); 13.0 Mbps; 23.976 fps; 0.273 bpp
Аудио 1: Russian; AC3; 48.0 KHz; 2ch; 192 Kbps MVO Светла
Аудио 2: Russian; AC3; 48.0 KHz; 2ch; 192 Kbps DVO Film Prestige
Аудио 3: Russian; AC3; 48.0 KHz; 2ch ch; 192 Kbps DVO Культура
Аудио 4: Englis; AC3; 48.0 KHz; 448 Kbps
Аудио 5: English; AAC; 48.0 KHz; 1 ch; 80 Kbps Commentary – By film scholar Eric Lax

MediaInfo

Format : Matroska
Format version : Version 4 / Version 2
File size : 8.25 GiB
Duration : 1h 22mn
Overall bit rate : 14.3 Mbps
Encoded date : UTC 2015-03-08 17:57:24
Writing application : mkvmerge v7.2.0 ('On Every Street') 64bit built on Sep 13 2014 15:52:10
Writing library : libebml v1.3.0 + libmatroska v1.4.1
DURATION : 01:20:00.011000000
NUMBER_OF_FRAMES : 1389
NUMBER_OF_BYTES : 87912
_STATISTICS_WRITING_APP : mkvmerge v7.2.0 ('On Every Street') 64bit built on Sep 13 2014 15:52:10
_STATISTICS_WRITING_DATE_UTC : 2015-03-08 17:57:24
_STATISTICS_TAGS : BPS DURATION NUMBER_OF_FRAMES NUMBER_OF_BYTES
Video
ID : 1
Format : AVC
Format/Info : Advanced Video Codec
Format profile : High@L4.1
Format settings, CABAC : Yes
Format settings, ReFrames : 11 frames
Codec ID : V_MPEG4/ISO/AVC
Duration : 1h 22mn
Width : 986 pixels
Height : 720 pixels
Display aspect ratio : 4:3
Frame rate mode : Constant
Frame rate : 23.976 fps
Color space : YUV
Chroma subsampling : 4:2:0
Bit depth : 8 bits
Scan type : Progressive
Writing library : x264 core 133 r2334 a3ac64b
Encoding settings : cabac=1 / ref=11 / deblock=1:-3:-3 / analyse=0x3:0x133 / me=tesa / subme=10 / psy=1 / psy_rd=1.10:0.00 / mixed_ref=1 / me_range=32 / chroma_me=1 / trellis=2 / 8x8dct=1 / cqm=0 / deadzone=21,11 / fast_pskip=0 / chroma_qp_offset=-2 / threads=12 / lookahead_threads=2 / sliced_threads=0 / nr=0 / decimate=1 / interlaced=0 / bluray_compat=0 / constrained_intra=0 / bframes=9 / b_pyramid=2 / b_adapt=2 / b_bias=0 / direct=3 / weightb=1 / open_gop=0 / weightp=2 / keyint=241 / keyint_min=23 / scenecut=40 / intra_refresh=0 / rc_lookahead=60 / rc=crf / mbtree=0 / crf=17.0 / qcomp=0.70 / qpmin=0 / qpmax=69 / qpstep=4 / vbv_maxrate=50000 / vbv_bufsize=62500 / crf_max=0.0 / nal_hrd=none / ip_ratio=1.40 / pb_ratio=1.30 / aq=1:0.70
Language : English
Default : Yes
Forced : No
DURATION : 01:22:20.019000000
NUMBER_OF_FRAMES : 118442
NUMBER_OF_BYTES : 8169498967
_STATISTICS_WRITING_APP : mkvmerge v7.2.0 ('On Every Street') 64bit built on Sep 13 2014 15:52:10
_STATISTICS_WRITING_DATE_UTC : 2015-03-08 17:57:24
_STATISTICS_TAGS : BPS DURATION NUMBER_OF_FRAMES NUMBER_OF_BYTES
Audio #1
ID : 2
Format : AC-3
Format/Info : Audio Coding 3
Mode extension : CM (complete main)
Format settings, Endianness : Big
Codec ID : A_AC3
Duration : 1h 22mn
Bit rate mode : Constant
Bit rate : 192 Kbps
Channel(s) : 2 channels
Channel positions : Front: L R
Sampling rate : 48.0 KHz
Bit depth : 16 bits
Compression mode : Lossy
Stream size : 113 MiB (1%)
Title : MVO Светла
Language : Russian
Default : Yes
Forced : No
Audio #2
ID : 3
Format : AC-3
Format/Info : Audio Coding 3
Mode extension : CM (complete main)
Format settings, Endianness : Big
Codec ID : A_AC3
Duration : 1h 22mn
Bit rate mode : Constant
Bit rate : 192 Kbps
Channel(s) : 2 channels
Channel positions : Front: L R
Sampling rate : 48.0 KHz
Bit depth : 16 bits
Compression mode : Lossy
Stream size : 113 MiB (1%)
Title : DVO Культура
Language : Russian
Default : No
Forced : No
Audio #3
ID : 4
Format : AC-3
Format/Info : Audio Coding 3
Mode extension : CM (complete main)
Format settings, Endianness : Big
Codec ID : A_AC3
Duration : 1h 22mn
Bit rate mode : Constant
Bit rate : 192 Kbps
Channel(s) : 2 channels
Channel positions : Front: L R
Sampling rate : 48.0 KHz
Bit depth : 16 bits
Compression mode : Lossy
Stream size : 113 MiB (1%)
Title : DVO Film Prestige
Language : Russian
Default : No
Forced : No
Audio #4
ID : 5
Format : AC-3
Format/Info : Audio Coding 3
Mode extension : CM (complete main)
Format settings, Endianness : Big
Codec ID : A_AC3
Duration : 1h 22mn
Bit rate mode : Constant
Bit rate : 448 Kbps
Channel(s) : 1 channel
Channel positions : Front: C
Sampling rate : 48.0 KHz
Bit depth : 16 bits
Compression mode : Lossy
Stream size : 264 MiB (3%)
Language : English
Default : No
Forced : No
Audio #5
ID : 6
Format : AAC
Format/Info : Advanced Audio Codec
Format profile : LC
Codec ID : A_AAC
Duration : 1h 22mn
Channel(s) : 1 channel
Channel positions : Front: C
Sampling rate : 48.0 KHz
Compression mode : Lossy
Delay relative to video : 9ms
Title : Commentary - By film scholar Eric Lax
Language : English
Default : No
Forced : No
Text #1
ID : 7
Format : UTF-8
Codec ID : S_TEXT/UTF8
Codec ID/Info : UTF-8 Plain Text
Language : Russian
Default : No
Forced : No
Text #2
ID : 8
Format : UTF-8
Codec ID : S_TEXT/UTF8
Codec ID/Info : UTF-8 Plain Text
Language : English
Default : No
Forced : No
Text #3
ID : 9
Format : UTF-8
Codec ID : S_TEXT/UTF8
Codec ID/Info : UTF-8 Plain Text
Language : Greek
Default : No
Forced : No
Menu
00:00:00.000 : en:Credits
00:01:03.272 : en:God Save the Republic
00:05:22.197 : en:Going Into His Act
00:09:28.860 : en:Visitor to Black Mesa
00:14:01.591 : en:Gramp's Acquaintances
00:16:49.842 : en:Swell Poetry
00:20:23.556 : en:Something to Believe In
00:23:34.288 : en:Brains Without Purpose
00:28:05.267 : en:Just a Kiss
00:32:17.686 : en:Ride With the Chisholms
00:35:32.964 : en:The Mantee Gang
00:37:56.107 : en:Cafι Reunion
00:41:56.472 : en:Ringside Seats
00:46:35.376 : en:Rugged Individualism
00:51:26.250 : en:Gabby Declares Herself
00:55:18.065 : en:Candidates for Hanging
00:57:16.058 : en:Alan's Proposal
01:04:18.646 : en:Edith's Advice
01:09:28.206 : en:Love Outspoken
01:12:09.283 : en:Closing In on Duke
01:15:03.249 : en:Shootout With the Posse
01:18:40.966 : en:Bullet on Request
01:20:45.758 : en:Poetic Sendoff

Скриншоты



Показать сообщения:    

Текущее время: 18-Дек 20:41

Часовой пояс: UTC ± 0


Вы не можете начинать темы
Вы не можете отвечать на сообщения
Вы не можете редактировать свои сообщения
Вы не можете удалять свои сообщения
Вы не можете голосовать в опросах
Вы не можете прикреплять файлы к сообщениям
Вы не можете скачивать файлы

!ВНИМАНИЕ!
Сайт не предоставляет электронные версии произведений, а занимается лишь коллекционированием и каталогизацией ссылок, присылаемых и публикуемых на форуме нашими читателями. Если вы являетесь правообладателем какого-либо представленного материала и не желаете, чтобы ссылка на него находилась в нашем каталоге, свяжитесь с нами, и мы незамедлительно удалим ее. Файлы для обмена на трекере предоставлены пользователями сайта, и администрация не несет ответственности за их содержание. Просьба не заливать файлы, защищенные авторскими правами, а также файлы нелегального содержания!