Ивановский Торрент трекер
Яндекс.Погода
 

[Цитировать]
димитри37

Ой, Ма-моч-ки!.. / Ой, мамочки!, Серия 1-2 из 2
Год выпуска: 2012
Производство: Беларусь, «Беларусьфильм» и ООО «Студия «Мы» (Россия)
Жанр: мелодрама
Продолжительность: 2 х 00:49:10
Режиссёр: Иван Павлов
В ролях: Александр Макогон, Вера Полякова, Александра Назарова, Анна Казючиц, Игорь Сигов, Алеся Пуховая, Валентина Гарцуева, Светлана Боровская, Анастасия Орёл, Денис Паршин, Владислав Бархатов, Сергей Власов (IV), Татьяна Чердынцева, Елена Дубровская, Инна Коляда, Яна Касперович, Светлана Аникей, Светлана Зеленковская, Оксана Лесная, Вероника Пляшкевич, Евгения Кульбачная, Екатерина Шуляк
Описание: Вера Михайловна работает заведующей отделением патологии в одном из городских родильных домов. Это очень непростая и очень ответственная работа – помогать будущим мамам произвести на свет здоровых и счастливых малышей. Тем более, что мама маме рознь – кто-то из пациенток Веры Михайловны состоит в законном браке и счастливо ждёт прибавления в семействе, кто-то желает родить ребенка несмотря на хрупкое здоровье или сопротивление родных, а кто-то очень одинок и всерьез помышляет об отказе от первенца… У всех будущих мам есть своя история – трогательная и волнительная, радостная или печальная, но обязательно полная надежды.-Сэмпл: http://multi-up.com/838368
Качество видео: SATRip
Формат видео: AVI
Видео: 720x400, 25 fps, XviD, 2121 kbps, 0.301 bit/pixel
Аудио: 48 kHz, MPEG Layer 3, 2 ch, 192 kbps

MediaInfo

бщее
Полное имя : Z:\Video\Ма-моч-ки! (Ой, мамочки!) СТБ 2013\Ma-moch-ki!..(Oj,mamochki!).(serija.1.iz.2).2013.XviD.SATRip.by.simka.avi
Формат : AVI
Формат/Информация : Audio Video Interleave
Размер файла : 816 Мбайт
Продолжительность : 49 м.
Общий поток : 2317 Кбит/сек
Программа кодирования : VirtualDubModRus 1.5.10.2 (build 2542/release)
Библиотека кодирования : VirtualDubMod build 2542/release
Видео
Идентификатор : 0
Формат : MPEG-4 Visual
Профиль формата : Advanced Simple@L5
Параметр BVOP формата : 1
Параметр QPel формата : Нет
Параметр GMC формата : Без точки перехода
Параметр матрицы формата : Default (H.263)
Идентификатор кодека : XVID
Идентификатор кодека/Подсказка : XviD
Продолжительность : 49 м.
Битрейт : 2116 Кбит/сек
Ширина : 720 пикс.
Высота : 400 пикс.
Соотношение сторон : 16:9
Частота кадров : 25,000 кадр/сек
Цветовое пространство : YUV
Подвыборка цветности : 4:2:0
Битовая глубина : 8 бит
Тип развёртки : Прогрессивная
Метод сжатия : С потерями
Бит/(Пиксели*Кадры) : 0.294
Размер потока : 745 Мбайт (91%)
Библиотека кодирования : XviD 1.2.1 (UTC 2008-12-04)
Аудио
Идентификатор : 1
Формат : MPEG Audio
Версия формата : Version 1
Профиль формата : Layer 3
Режим : Joint stereo
Расширение режима : MS Stereo
Идентификатор кодека : 55
Идентификатор кодека/Подсказка : MP3
Продолжительность : 49 м.
Вид битрейта : Постоянный
Битрейт : 192 Кбит/сек
Каналы : 2 канала
Частота : 48,0 КГц
Метод сжатия : С потерями
Размер потока : 67,6 Мбайт (8%)
Выравнивание : Соединение по промежуткам
Продолжительность промежутка : 40 мс. (1,00 видеокадр)
Время предзагрузки промежутка : 504 ms
Библиотека кодирования : LAME3.98r
Настройки программы : -m j -V 4 -q 2 -lowpass 18.6 -b 192
Общее
Полное имя : Z:\Video\Ма-моч-ки! (Ой, мамочки!) СТБ 2013\Ma-moch-ki!..(Oj,mamochki!).(serija.2.iz.2).2013.XviD.SATRip.by.simka.avi
Формат : AVI
Формат/Информация : Audio Video Interleave
Размер файла : 815 Мбайт
Продолжительность : 49 м.
Общий поток : 2318 Кбит/сек
Программа кодирования : VirtualDubModRus 1.5.10.2 (build 2542/release)
Библиотека кодирования : VirtualDubMod build 2542/release
Видео
Идентификатор : 0
Формат : MPEG-4 Visual
Профиль формата : Advanced Simple@L5
Параметр BVOP формата : 1
Параметр QPel формата : Нет
Параметр GMC формата : Без точки перехода
Параметр матрицы формата : Default (H.263)
Идентификатор кодека : XVID
Идентификатор кодека/Подсказка : XviD
Продолжительность : 49 м.
Битрейт : 2116 Кбит/сек
Ширина : 720 пикс.
Высота : 400 пикс.
Соотношение сторон : 16:9
Частота кадров : 25,000 кадр/сек
Цветовое пространство : YUV
Подвыборка цветности : 4:2:0
Битовая глубина : 8 бит
Тип развёртки : Прогрессивная
Метод сжатия : С потерями
Бит/(Пиксели*Кадры) : 0.294
Размер потока : 744 Мбайт (91%)
Библиотека кодирования : XviD 1.2.1 (UTC 2008-12-04)
Аудио
Идентификатор : 1
Формат : MPEG Audio
Версия формата : Version 1
Профиль формата : Layer 3
Режим : Joint stereo
Расширение режима : MS Stereo
Идентификатор кодека : 55
Идентификатор кодека/Подсказка : MP3
Продолжительность : 49 м.
Вид битрейта : Постоянный
Битрейт : 192 Кбит/сек
Каналы : 2 канала
Частота : 48,0 КГц
Метод сжатия : С потерями
Размер потока : 67,5 Мбайт (8%)
Выравнивание : Соединение по промежуткам
Продолжительность промежутка : 40 мс. (1,00 видеокадр)
Время предзагрузки промежутка : 504 ms
Библиотека кодирования : LAME3.98r
Настройки программы : -m j -V 4 -q 2 -lowpass 18.6 -b 192

Скриншот c названием фильма

Скриншоты

-


Показать сообщения:    

Текущее время: 15-Дек 21:45

Часовой пояс: UTC ± 0


Вы не можете начинать темы
Вы не можете отвечать на сообщения
Вы не можете редактировать свои сообщения
Вы не можете удалять свои сообщения
Вы не можете голосовать в опросах
Вы не можете прикреплять файлы к сообщениям
Вы не можете скачивать файлы

!ВНИМАНИЕ!
Сайт не предоставляет электронные версии произведений, а занимается лишь коллекционированием и каталогизацией ссылок, присылаемых и публикуемых на форуме нашими читателями. Если вы являетесь правообладателем какого-либо представленного материала и не желаете, чтобы ссылка на него находилась в нашем каталоге, свяжитесь с нами, и мы незамедлительно удалим ее. Файлы для обмена на трекере предоставлены пользователями сайта, и администрация не несет ответственности за их содержание. Просьба не заливать файлы, защищенные авторскими правами, а также файлы нелегального содержания!