Важное объявление!
У Нас Все раздачи мультитрекерные, при нуле пиров в релизах, можете смело вставать на закачку!
 
Автор Сообщение

HUNTER

Стаж:
4 года 6 месяцев
Сообщений:
61017

Репутация: 101

[+] [-]
Вне форума [Профиль] [ЛС]

Оз: Нашествие летучих обезьян / Wicked Flying Monkeys
Страна: Индия, Мексика
Жанр: Мультипликация
Продолжительность: 01:27:21
Год выпуска: 2015
Перевод: Профессиональный (дублированный) (Чистый звук)
Русские субтитры: нет-Режиссёр: Альберто Мар
Роли озвучивали: Рауль Араиса, Раймундо Армихо, Ямил Атала, Бруно Коронел, Магда Хинер, Себастьян Льяпур, Мойсес Иван Мора, Лорето Пералта, Salvador Reyes, Хорхе Ван Ранкин-Описание: Вы помните, как все начиналось? Давным-давно в страну Оз прилетела юная героиня, ее звали Дороти, она смогла победить Коварную Ведьму Запада и добрая волшебница Глинда помогла ей вернуться домой. А друзья Дороти — Страшила, Железный Дровосек и Смелый Лев — стали правителями страны Оз. И все в волшебной стране было хорошо, пока Глинда по своей доброте не решила дать Коварной Ведьме Запада еще один шанс.
Чары Злодейки поместили в метлу, а метлу передали Правителям. Но злая ведьма — есть злая ведьма, даже без своих чар… Знакомая с детства история, продолжение которой рассказывает маленькая летающая обезьянка, которая на самом деле не умеет летать и не хочет служить Коварной Ведьме Запада.-Качество: BDRip 1080p
Формат: MKV
Видео: AVC, 1920x1040 (16:9), 24.000 fps, 7 403 Kbps (0.154 bit/pixel)
Аудио: AC-3, 48.0 KHz, 2 ch, 256 Kbps, CBR (Чистый звук)
Субтитры: отсутствуют
Семпл: http://multi-up.com/1045442

Подробные технические данные

ОбщееУникальный идентификатор : 207173067499965441291462235240852089989 (0x9BDC14D90C0729DC90A5130D4AF3EC85)Полное имя : D:\Wicked Flying Monkeys 2015 BDRip 1080p.mkvФормат : MatroskaВерсия формата : Version 4 / Version 2Размер файла : 4,77 ГбайтПродолжительность : 1 ч. 27 м.Общий поток : 7814 Кбит/секДата кодирования : UTC 2015-04-25 06:40:23Программа кодирования : mkvmerge v7.8.0 ('River Man') 32bit built on Mar 27 2015 16:18:02Библиотека кодирования : libebml v1.3.1 + libmatroska v1.4.2DURATION : 01:27:20.896000000NUMBER_OF_FRAMES : 163778NUMBER_OF_BYTES : 167708672_STATISTICS_WRITING_APP : mkvmerge v7.8.0 ('River Man') 32bit built on Mar 27 2015 16:18:02_STATISTICS_WRITING_DATE_UTC : 2015-04-25 06:40:23_STATISTICS_TAGS : BPS DURATION NUMBER_OF_FRAMES NUMBER_OF_BYTES
ВидеоИдентификатор : 1Формат : AVCФормат/Информация : Advanced Video CodecПрофиль формата : High@L4.1Параметр CABAC формата : ДаПараметр ReFrames формата : 7 кадровИдентификатор кодека : V_MPEG4/ISO/AVCПродолжительность : 1 ч. 27 м.Битрейт : 7403 Кбит/секШирина : 1920 пикселейВысота : 1040 пикселейСоотношение сторон : 1,85:1Режим частоты кадров : ПостоянныйЧастота кадров : 24,000 кадра/секЦветовое пространство : YUVСубдискретизация насыщенности : 4:2:0Битовая глубина : 8 битТип развёртки : ПрогрессивнаяБит/(Пиксели*Кадры) : 0.154Размер потока : 4,52 Гбайт (95%)Язык : EnglishDefault : ДаForced : НетDURATION : 01:27:21.296000000NUMBER_OF_FRAMES : 125791NUMBER_OF_BYTES : 4950808175_STATISTICS_WRITING_APP : mkvmerge v7.8.0 ('River Man') 32bit built on Mar 27 2015 16:18:02_STATISTICS_WRITING_DATE_UTC : 2015-04-25 06:40:23_STATISTICS_TAGS : BPS DURATION NUMBER_OF_FRAMES NUMBER_OF_BYTES
АудиоИдентификатор : 2Формат : AC-3Формат/Информация : Audio Coding 3Расширение режима : CM (complete main)Параметр Endianness формата : BigИдентификатор кодека : A_AC3Продолжительность : 1 ч. 27 м.Вид битрейта : ПостоянныйБитрейт : 256 Кбит/секКаналы : 2 каналаРасположение каналов : Front: L RЧастота : 48,0 КГцБитовая глубина : 16 битМетод сжатия : С потерямиЗадержка видео : 28 мс.Размер потока : 160 Мбайт (3%)Язык : RussianDefault : ДаForced : Нет

Скриншоты



_________________
Показать сообщения:    

Текущее время: Сегодня 15:49

Часовой пояс: GMT



Вы не можете начинать темы
Вы не можете отвечать на сообщения
Вы не можете редактировать свои сообщения
Вы не можете удалять свои сообщения
Вы не можете голосовать в опросах
Вы не можете прикреплять файлы к сообщениям
Вы не можете скачивать файлы
Наши партнеры: интернет магазин Ивановского трикотажа textilla.ru