Ивановский Торрент трекер
Яндекс.Погода
 

[Цитировать]
HUNTER

Оз: Нашествие летучих обезьян
Guardianes de Oz


Страна: Мексика
Жанр: мультфильм, фэнтези, приключения
Год выпуска: 2015
Продолжительность: 01:27:21
Перевод: Профессиональный (полное дублирование) [Лицензия]
Cубтитры: нет
Оригинальная аудиодорожка: нет
Режиссер: Альберто Мар / Alberto Mar
В ролях: Рауль Араиса, Раймундо Армихо, Лурдес Аррути, Ямил Атала, Лилиана Барба Майнеке, Энрике Сервантес, Бруно Коронел, Андрес Гарсиа, Артуро Гарсиа, Оскар Гариба, Магда Хинер, Эктор Эммануэль Гомес Джил
Описание:
Вы помните, как все начиналось? Давным-давно в страну Оз прилетела юная героиня, ее звали Дороти, она смогла победить Коварную Ведьму Запада и добрая волшебница Глинда помогла ей вернуться домой. А друзья Дороти - Страшила, Железный Дровосек и Смелый Лев - стали правителями страны Оз. И все в волшебной стране было хорошо, пока Глинда по своей доброте не решила дать Коварной Ведьме Запада еще один шанс.
Чары Злодейки поместили в метлу, а метлу передали Правителям. Но злая ведьма - есть злая ведьма, даже без своих чар... Знакомая с детства история, продолжение которой рассказывает маленькая летающая обезьянка, которая на самом деле не умеет летать и не хочет служить Коварной Ведьме Запада.

Релиз:
Автор рипа: Stalker oK
Сэмпл
Качество видео: HDRip-AVC [BDRip 1080p]
Формат видео: MKV
Видео кодек: AVC
Аудио кодек: AC3
Видео: 1932 Кбит/сек, 1008x546 (16:9), 24 кадр/сек, AVC
Аудио: русский, 448 Кбит/сек, 48 КГц, 16 бит, 5.1, AC3

MediaInfo

Общее
Уникальный идентификатор : 183784289912683292500047051035946041971 (0x8A439114E50C974A8251E4B924B0C273)
Полное имя : M:\Рипы\Оз Нашествие летучих обезьян\Guardianes.de.Oz.2015.HDRip-AVC.Dub.1.45Gb...stalkerok.new-team.mkv
Формат : Matroska
Размер файла : 1,45 Гбайт
Продолжительность : 1 ч. 27 м.
Общий поток : 2382 Кбит/сек
Название фильма : Guardianes de Oz (2015) (New-Team) (Rip by Stalker oK)
Дата кодирования : UTC 2015-07-13 17:55:53
Программа кодирования : mkvmerge v7.9.0 ('Birds') 64bit
Библиотека кодирования : libebml v1.3.1 + libmatroska v1.4.2
Видео
Идентификатор : 1
Формат : AVC
Формат/Информация : Advanced Video Codec
Профиль формата : High@L4.1
Параметр CABAC формата : Да
Параметр ReFrames формата : 12 кадры
Идентификатор кодека : V_MPEG4/ISO/AVC
Продолжительность : 1 ч. 27 м.
Битрейт : 1932 Кбит/сек
Ширина : 1008 пикс.
Высота : 546 пикс.
Соотношение сторон : 16:9
Частота кадров : 24,000 кадр/сек
Цветовое пространство : YUV
Подвыборка цветности : 4:2:0
Битовая глубина : 8 бит
Тип развёртки : Прогрессивная
Бит/(Пиксели*Кадры) : 0.146
Размер потока : 1,15 Гбайт (79%)
Заголовок : Guardianes de Oz (2015) (New-Team) (Rip by Stalker oK)
Библиотека кодирования : x264 core 146 r2538kMod 121396c
Настройки программы : cabac=1 / ref=12 / deblock=1:-1:-1 / analyse=0x3:0x133 / me=umh / subme=11 / psy=1 / fade_compensate=0.00 / psy_rd=1.00:0.05 / mixed_ref=1 / me_range=32 / chroma_me=1 / trellis=2 / 8x8dct=1 / cqm=0 / deadzone=21,11 / fast_pskip=0 / chroma_qp_offset=-3 / threads=12 / lookahead_threads=3 / sliced_threads=0 / nr=0 / decimate=0 / interlaced=0 / bluray_compat=0 / constrained_intra=0 / fgo=0 / bframes=14 / b_pyramid=2 / b_adapt=2 / b_bias=0 / direct=3 / weightb=1 / open_gop=0 / weightp=2 / keyint=240 / keyint_min=24 / scenecut=40 / intra_refresh=0 / rc_lookahead=60 / rc=2pass / mbtree=0 / bitrate=1932 / ratetol=1.0 / qcomp=0.70 / qpmin=0 / qpmax=69 / qpstep=4 / cplxblur=20.0 / qblur=0.5 / vbv_maxrate=50000 / vbv_bufsize=62500 / nal_hrd=none / filler=0 / ip_ratio=1.40 / pb_ratio=1.30 / aq=3:0.80
Аудио
Идентификатор : 2
Формат : AC-3
Формат/Информация : Audio Coding 3
Расширение режима : CM (complete main)
Идентификатор кодека : A_AC3
Продолжительность : 1 ч. 27 м.
Вид битрейта : Постоянный
Битрейт : 448 Кбит/сек
Канал(ы) : 6 канала(ов)
Расположение каналов : Front: L C R, Side: L R, LFE
Частота : 48,0 КГц
Битовая глубина : 16 бит
Метод сжатия : С потерями
Размер потока : 280 Мбайт (19%)
Язык : Russian

Скриншоты

Показать сообщения:    

Текущее время: 20-Окт 00:15

Часовой пояс: UTC - 1


Вы не можете начинать темы
Вы не можете отвечать на сообщения
Вы не можете редактировать свои сообщения
Вы не можете удалять свои сообщения
Вы не можете голосовать в опросах
Вы не можете прикреплять файлы к сообщениям
Вы не можете скачивать файлы

!ВНИМАНИЕ!
Сайт не предоставляет электронные версии произведений, а занимается лишь коллекционированием и каталогизацией ссылок, присылаемых и публикуемых на форуме нашими читателями. Если вы являетесь правообладателем какого-либо представленного материала и не желаете, чтобы ссылка на него находилась в нашем каталоге, свяжитесь с нами, и мы незамедлительно удалим ее. Файлы для обмена на трекере предоставлены пользователями сайта, и администрация не несет ответственности за их содержание. Просьба не заливать файлы, защищенные авторскими правами, а также файлы нелегального содержания!