Важное объявление!
У Нас Все раздачи мультитрекерные, при нуле пиров в релизах, можете смело вставать на закачку!
 
Автор Сообщение

HUNTER

Стаж:
4 года 7 месяцев
Сообщений:
61487

Репутация: 101

[+] [-]
Вне форума [Профиль] [ЛС]

Оз: Возвращение в Изумрудный Город | Legends of Oz: Dorothy's Return-
Страна: США, Индия
Жанр: мультфильм, мюзикл, семейный
Продолжительность: 01:32:02
Перевод: профессиональный полное дублирование R5
Год выпуска: 2013
Русские субтитры: нет
Режиссёр: Уилл Финн / Will Finn, Дэн Ст. Пьер / Dan St. Pierre
Роли озвучивали: Роли озвучивали: Лиа Мишель, Патрик Стюарт, Джеймс Белуши, Дэн Эйкройд, Келси Грэммер, Меган Хилти, Хью Дэнси, Оливер Плэтт, Бернадетт Питерс, Мартин Шорт
Роли дублировали: Полина Гагарина, Алексей Чумаков, Александр Головчанский, Станислав Дужников, Гарик Харламов-Описание
Дороти снова магическим образом переносится в страну Оз, чтобы спасти от беды ее жителей. Но оказывается, что старые друзья Дороти — Страшила, Железный Дровосек и Храбрый Лев — исчезли. Путешествуя по стране в поисках своих друзей, Дороти встречает новых попутчиков — Капитана Зефира, Фарфоровую Принцессу и филина Савву. Дороти должна помочь таким разным героям объединиться, чтобы одолеть нового злодея — шута Джестера, который хочет захватить страну Оз при помощи черной магии.-
«Оз: Возвращение в Изумрудный Город» (Legends of Oz: Dorothy’s Return) — компьютерный мультфильм Дэна Сен-Пьера и Уилла Финна, экранизация одноимённой книги Роджера С. Баума. Производство Summertime Entertainment и Prana Studios
Релиз:

Сэмпл

IMDb: 6.40 (3634)
Качество: BDRip 720p Legends.Of.Oz.Dorothys.Return.2013.D.Blu-Ray.Remux.(1080p).NovaLan
Формат: MKV
Видео: AVC 5176 Kbps 1280 x 720 (1.778) 23.976 fps
Аудио: AC-3 448 Kbps 6 channels, 48.0 KHz RUS
Аудио 2: AC-3 640 Kbps 6 channels, 48.0 KHz ENG
Субтитры: Eng SRT

MI | Log

Log
x264 [info]: frame I:1353 Avg QP:13.40 size:203205
x264 [info]: frame P:36949 Avg QP:14.91 size: 50035
x264 [info]: frame B:94106 Avg QP:17.85 size: 16318
x264 [info]: consecutive B-frames: 4.6% 6.5% 7.3% 60.2% 6.4% 10.3% 1.2% 2.3% 0.4% 0.3% 0.5%
x264 [info]: mb I I16..4: 7.0% 64.9% 28.1%
x264 [info]: mb P I16..4: 1.0% 14.0% 2.4% P16..4: 20.6% 22.4% 12.8% 3.9% 0.8% skip:22.1%
x264 [info]: mb B I16..4: 0.2% 2.5% 0.3% B16..8: 23.7% 16.7% 3.9% direct: 5.0% skip:47.6% L0:37.8% L1:44.1% BI:18.1%
x264 [info]: 8x8 transform intra:79.0% inter:48.9%
x264 [info]: direct mvs spatial:100.0% temporal:0.0%
x264 [info]: coded y,uvDC,uvAC intra: 90.4% 92.4% 81.7% inter: 20.3% 20.5% 10.7%
x264 [info]: i16 v,h,dc,p: 13% 8% 9% 71%
x264 [info]: i8 v,h,dc,ddl,ddr,vr,hd,vl,hu: 9% 11% 9% 9% 12% 11% 12% 12% 15%
x264 [info]: i4 v,h,dc,ddl,ddr,vr,hd,vl,hu: 9% 9% 6% 9% 16% 13% 14% 11% 13%
x264 [info]: i8c dc,h,v,p: 43% 23% 16% 19%
x264 [info]: Weighted P-Frames: Y:5.1% UV:4.2%
x264 [info]: ref P L0: 58.9% 10.2% 13.0% 5.2% 3.7% 3.1% 2.4% 1.7% 1.6% 0.3% 0.0%
x264 [info]: ref B L0: 82.9% 8.3% 3.7% 1.8% 1.4% 1.0% 0.7% 0.3%
x264 [info]: ref B L1: 94.7% 5.3%
x264 [info]: kb/s:5300.89
x264 [total]: encoded 132408 frames, 7.38 fps, 5300.90 kb/s, duration 4:58:51.90
Format : Matroska
Format version : Version 4 / Version 2
File size : 4.11 GiB
Duration : 1h 32mn
Overall bit rate : 6 391 Kbps
Encoded date : UTC 2015-05-29 18:25:32
Writing application : mkvmerge v6.7.0 ('Back to the Ground') 32bit built on Jan 8 2014 15:03:17
Writing library : libebml v1.3.0 + libmatroska v1.4.1
Video
ID : 1
Format : AVC
Format/Info : Advanced Video Codec
Format profile : High@L4.1
Format settings, CABAC : Yes
Format settings, ReFrames : 9 frames
Codec ID : V_MPEG4/ISO/AVC
Duration : 1h 32mn
Bit rate : 5 176 Kbps
Width : 1 280 pixels
Height : 720 pixels
Display aspect ratio : 16:9
Frame rate mode : Constant
Frame rate : 23.976 fps
Color space : YUV
Chroma subsampling : 4:2:0
Bit depth : 8 bits
Scan type : Progressive
Bits/(Pixel*Frame) : 0.234
Stream size : 3.33 GiB (81%)
Title : Legends of Oz: Dorothy's Return 720p (2013) [rutracker.org]
Writing library : x264 core 146 r2538kMod 121396c
Encoding settings : cabac=1 / ref=9 / deblock=1:-3:-2 / analyse=0x3:0x133 / me=umh / subme=11 / psy=1 / fade_compensate=0.00 / psy_rd=1.00:0.05 / mixed_ref=1 / me_range=32 / chroma_me=1 / trellis=2 / 8x8dct=1 / cqm=0 / deadzone=21,11 / fast_pskip=0 / chroma_qp_offset=-3 / threads=12 / lookahead_threads=3 / sliced_threads=0 / nr=0 / decimate=1 / interlaced=0 / bluray_compat=0 / constrained_intra=0 / fgo=0 / bframes=10 / b_pyramid=2 / b_adapt=2 / b_bias=0 / direct=3 / weightb=1 / open_gop=0 / weightp=2 / keyint=250 / keyint_min=23 / scenecut=40 / intra_refresh=0 / rc_lookahead=80 / rc=crf / mbtree=0 / crf=16.3000 / qcomp=0.60 / qpmin=0 / qpmax=69 / qpstep=4 / vbv_maxrate=50000 / vbv_bufsize=62500 / crf_max=0.0 / nal_hrd=none / filler=0 / ip_ratio=1.40 / pb_ratio=1.30 / aq=3:0.90
Language : English
Default : Yes
Forced : No
Audio #1
ID : 2
Format : AC-3
Format/Info : Audio Coding 3
Mode extension : CM (complete main)
Format settings, Endianness : Big
Codec ID : A_AC3
Duration : 1h 32mn
Bit rate mode : Constant
Bit rate : 448 Kbps
Channel(s) : 6 channels
Channel positions : Front: L C R, Side: L R, LFE
Sampling rate : 48.0 KHz
Bit depth : 16 bits
Compression mode : Lossy
Stream size : 295 MiB (7%)
Title : DUB R5
Language : Russian
Default : Yes
Forced : No
Audio #2
ID : 3
Format : AC-3
Format/Info : Audio Coding 3
Mode extension : CM (complete main)
Format settings, Endianness : Big
Codec ID : A_AC3
Duration : 1h 32mn
Bit rate mode : Constant
Bit rate : 640 Kbps
Channel(s) : 6 channels
Channel positions : Front: L C R, Side: L R, LFE
Sampling rate : 48.0 KHz
Bit depth : 16 bits
Compression mode : Lossy
Stream size : 421 MiB (10%)
Title : Original
Language : English
Default : No
Forced : No
Text
ID : 4
Format : UTF-8
Codec ID : S_TEXT/UTF8
Codec ID/Info : UTF-8 Plain Text
Title : SDH
Language : English
Default : No
Forced : No
Menu
00:00:00.000 : en:Chapter 01
00:03:40.970 : en:Chapter 02
00:05:14.397 : en:Chapter 03
00:08:56.786 : en:Chapter 04
00:12:02.012 : en:Chapter 05
00:15:57.331 : en:Chapter 06
00:19:32.629 : en:Chapter 07
00:22:26.887 : en:Chapter 08
00:25:17.182 : en:Chapter 09
00:28:02.055 : en:Chapter 10
00:29:57.337 : en:Chapter 11
00:33:33.761 : en:Chapter 12
00:35:27.125 : en:Chapter 13
00:38:47.533 : en:Chapter 14
00:43:44.580 : en:Chapter 15
00:46:06.764 : en:Chapter 16
00:48:36.580 : en:Chapter 17
00:51:07.647 : en:Chapter 18
00:54:42.737 : en:Chapter 19
00:56:01.441 : en:Chapter 20
00:59:25.853 : en:Chapter 21
01:04:15.685 : en:Chapter 22
01:06:55.011 : en:Chapter 23
01:11:13.936 : en:Chapter 24
01:14:10.904 : en:Chapter 25
01:17:43.367 : en:Chapter 26
01:21:38.143 : en:Chapter 27
01:24:06.332 : en:Chapter 28

Скриншоты





_________________
Показать сообщения:    

Текущее время: Сегодня 07:06

Часовой пояс: GMT



Вы не можете начинать темы
Вы не можете отвечать на сообщения
Вы не можете редактировать свои сообщения
Вы не можете удалять свои сообщения
Вы не можете голосовать в опросах
Вы не можете прикреплять файлы к сообщениям
Вы не можете скачивать файлы
Наши партнеры: интернет магазин Ивановского трикотажа textilla.ru