Оз: Возвращение в Изумрудный Город / Legends of Oz: Dorothy\'s Return (Уилл Финн / Will Finn, Дэн Ст. Пьер / Dan St. Pierre) [2013, мультфильм, мюзикл, семейный, BDRip-AVC] Dub R5 + Sub (Eng) + Original Eng :: Ивановский Торрент трекер
Важное объявление!
У Нас Все раздачи мультитрекерные, при нуле пиров в релизах, можете смело вставать на закачку!
Статистика раздачи
Размер:     |    Зарегистрирован:     |    Скачан:     |   
Нет
 
     
 
 
Автор Сообщение

HUNTER

Стаж:
4 года 11 месяцев
Сообщений:
66077

Репутация: 101

[+] [-]
Вне форума [Профиль] [ЛС]

Оз: Возвращение в Изумрудный Город | Legends of Oz: Dorothy's Return-
Страна: США, Индия
Жанр: мультфильм, мюзикл, семейный
Продолжительность: 01:32:02
Перевод: профессиональный полное дублирование R5
Год выпуска: 2013
Русские субтитры: нет
Режиссёр: Уилл Финн / Will Finn, Дэн Ст. Пьер / Dan St. Pierre
Роли озвучивали: Роли озвучивали: Лиа Мишель, Патрик Стюарт, Джеймс Белуши, Дэн Эйкройд, Келси Грэммер, Меган Хилти, Хью Дэнси, Оливер Плэтт, Бернадетт Питерс, Мартин Шорт
Роли дублировали: Полина Гагарина, Алексей Чумаков, Александр Головчанский, Станислав Дужников, Гарик Харламов-Описание
Дороти снова магическим образом переносится в страну Оз, чтобы спасти от беды ее жителей. Но оказывается, что старые друзья Дороти — Страшила, Железный Дровосек и Храбрый Лев — исчезли. Путешествуя по стране в поисках своих друзей, Дороти встречает новых попутчиков — Капитана Зефира, Фарфоровую Принцессу и филина Савву. Дороти должна помочь таким разным героям объединиться, чтобы одолеть нового злодея — шута Джестера, который хочет захватить страну Оз при помощи черной магии.-
«Оз: Возвращение в Изумрудный Город» (Legends of Oz: Dorothy’s Return) — компьютерный мультфильм Дэна Сен-Пьера и Уилла Финна, экранизация одноимённой книги Роджера С. Баума. Производство Summertime Entertainment и Prana Studios
Релиз:

Сэмпл

IMDb: 6.40 (3634)
Качество: BDRip-AVC Legends.Of.Oz.Dorothys.Return.2013.D.Blu-Ray.Remux.(1080p).NovaLan
Формат: MKV
Видео: AVC 3831 Kbps 1152 x 648 (1.778) 23.976 fps
Аудио: AC-3 448 Kbps 6 channels, 48.0 KHz RUS
Аудио 2: AC-3 448 Kbps 6 channels, 48.0 KHz ENG
Субтитры: Eng SRT

MI | Log

Log
x264 [info]: frame I:1325 Avg QP:14.39 size:157575
x264 [info]: frame P:36451 Avg QP:16.10 size: 36943
x264 [info]: frame B:94632 Avg QP:19.11 size: 12194
x264 [info]: consecutive B-frames: 4.4% 6.1% 7.6% 58.9% 7.1% 10.9% 1.2% 2.2% 0.4% 0.2% 0.2% 0.4% 0.3%
x264 [info]: mb I I16..4: 6.0% 65.1% 28.9%
x264 [info]: mb P I16..4: 1.0% 13.1% 2.3% P16..4: 21.2% 22.6% 12.2% 3.4% 0.7% skip:23.5%
x264 [info]: mb B I16..4: 0.2% 2.3% 0.3% B16..8: 23.8% 15.7% 3.7% direct: 4.5% skip:49.4% L0:37.9% L1:44.8% BI:17.3%
x264 [info]: 8x8 transform intra:78.1% inter:52.6%
x264 [info]: direct mvs spatial:100.0% temporal:0.0%
x264 [info]: coded y,uvDC,uvAC intra: 88.7% 91.1% 79.0% inter: 18.4% 18.5% 9.1%
x264 [info]: i16 v,h,dc,p: 12% 8% 6% 74%
x264 [info]: i8 v,h,dc,ddl,ddr,vr,hd,vl,hu: 10% 10% 8% 9% 12% 11% 12% 12% 15%
x264 [info]: i4 v,h,dc,ddl,ddr,vr,hd,vl,hu: 12% 9% 5% 9% 15% 13% 13% 11% 13%
x264 [info]: i8c dc,h,v,p: 40% 24% 17% 19%
x264 [info]: Weighted P-Frames: Y:5.1% UV:4.2%
x264 [info]: ref P L0: 56.7% 10.5% 13.1% 5.2% 3.6% 3.0% 2.4% 1.5% 1.3% 1.3% 1.2% 0.2% 0.0%
x264 [info]: ref B L0: 81.2% 8.3% 4.0% 1.9% 1.4% 1.0% 0.9% 0.6% 0.4% 0.2%
x264 [info]: ref B L1: 94.2% 5.8%
x264 [info]: kb/s:3924.76
x264 [total]: encoded 132408 frames, 8.68 fps, 3924.76 kb/s, duration 4:14:22.03
Format : Matroska
Format version : Version 4 / Version 2
File size : 3.10 GiB
Duration : 1h 32mn
Overall bit rate : 4 823 Kbps
Encoded date : UTC 2015-05-22 09:53:11
Writing application : mkvmerge v6.7.0 ('Back to the Ground') 32bit built on Jan 8 2014 15:03:17
Writing library : libebml v1.3.0 + libmatroska v1.4.1
Video
ID : 1
Format : AVC
Format/Info : Advanced Video Codec
Format profile : High@L4.1
Format settings, CABAC : Yes
Format settings, ReFrames : 11 frames
Codec ID : V_MPEG4/ISO/AVC
Duration : 1h 32mn
Bit rate : 3 831 Kbps
Width : 1 152 pixels
Height : 648 pixels
Display aspect ratio : 16:9
Frame rate mode : Constant
Frame rate : 23.976 fps
Color space : YUV
Chroma subsampling : 4:2:0
Bit depth : 8 bits
Scan type : Progressive
Bits/(Pixel*Frame) : 0.214
Stream size : 2.46 GiB (79%)
Title : Legends of Oz: Dorothy's Return (2013) [rutracker.org]
Writing library : x264 core 146 r2538kMod 121396c
Encoding settings : cabac=1 / ref=11 / deblock=1:-2:-1 / analyse=0x3:0x133 / me=umh / subme=11 / psy=1 / fade_compensate=0.00 / psy_rd=1.00:0.05 / mixed_ref=1 / me_range=32 / chroma_me=1 / trellis=2 / 8x8dct=1 / cqm=0 / deadzone=21,11 / fast_pskip=0 / chroma_qp_offset=-3 / threads=12 / lookahead_threads=3 / sliced_threads=0 / nr=0 / decimate=1 / interlaced=0 / bluray_compat=0 / constrained_intra=0 / fgo=0 / bframes=12 / b_pyramid=2 / b_adapt=2 / b_bias=0 / direct=3 / weightb=1 / open_gop=0 / weightp=2 / keyint=250 / keyint_min=23 / scenecut=40 / intra_refresh=0 / rc_lookahead=80 / rc=crf / mbtree=0 / crf=17.0000 / qcomp=0.60 / qpmin=0 / qpmax=69 / qpstep=4 / vbv_maxrate=50000 / vbv_bufsize=62500 / crf_max=0.0 / nal_hrd=none / filler=0 / ip_ratio=1.40 / pb_ratio=1.30 / aq=3:0.90
Language : English
Default : Yes
Forced : No
Audio #1
ID : 2
Format : AC-3
Format/Info : Audio Coding 3
Mode extension : CM (complete main)
Format settings, Endianness : Big
Codec ID : A_AC3
Duration : 1h 32mn
Bit rate mode : Constant
Bit rate : 448 Kbps
Channel(s) : 6 channels
Channel positions : Front: L C R, Side: L R, LFE
Sampling rate : 48.0 KHz
Bit depth : 16 bits
Compression mode : Lossy
Stream size : 295 MiB (9%)
Title : DUB R5
Language : Russian
Default : Yes
Forced : No
Audio #2
ID : 3
Format : AC-3
Format/Info : Audio Coding 3
Mode extension : CM (complete main)
Format settings, Endianness : Big
Codec ID : A_AC3
Duration : 1h 32mn
Bit rate mode : Constant
Bit rate : 448 Kbps
Channel(s) : 6 channels
Channel positions : Front: L C R, Side: L R, LFE
Sampling rate : 48.0 KHz
Bit depth : 16 bits
Compression mode : Lossy
Stream size : 295 MiB (9%)
Title : Original
Language : English
Default : No
Forced : No
Text
ID : 4
Format : UTF-8
Codec ID : S_TEXT/UTF8
Codec ID/Info : UTF-8 Plain Text
Language : English
Default : No
Forced : No
Menu
00:00:00.000 : en:Chapter 01
00:03:40.970 : en:Chapter 02
00:05:14.397 : en:Chapter 03
00:08:56.786 : en:Chapter 04
00:12:02.012 : en:Chapter 05
00:15:57.331 : en:Chapter 06
00:19:32.629 : en:Chapter 07
00:22:26.887 : en:Chapter 08
00:25:17.182 : en:Chapter 09
00:28:02.055 : en:Chapter 10
00:29:57.337 : en:Chapter 11
00:33:33.761 : en:Chapter 12
00:35:27.125 : en:Chapter 13
00:38:47.533 : en:Chapter 14
00:43:44.580 : en:Chapter 15
00:46:06.764 : en:Chapter 16
00:48:36.580 : en:Chapter 17
00:51:07.647 : en:Chapter 18
00:54:42.737 : en:Chapter 19
00:56:01.441 : en:Chapter 20
00:59:25.853 : en:Chapter 21
01:04:15.685 : en:Chapter 22
01:06:55.011 : en:Chapter 23
01:11:13.936 : en:Chapter 24
01:14:10.904 : en:Chapter 25
01:17:43.367 : en:Chapter 26
01:21:38.143 : en:Chapter 27
01:24:06.332 : en:Chapter 28

_________________
Показать сообщения:    

Текущее время: Сегодня 05:10

Часовой пояс: GMT



Вы не можете начинать темы
Вы не можете отвечать на сообщения
Вы не можете редактировать свои сообщения
Вы не можете удалять свои сообщения
Вы не можете голосовать в опросах
Вы не можете прикреплять файлы к сообщениям
Вы не можете скачивать файлы