Ивановский Торрент трекер
Яндекс.Погода
 

[Цитировать]
HUNTER

Оз: Возвращение в Изумрудный Город / Legends of Oz: Dorothy's Return- -Страна: США, Индия / Prana Animation Studios, Prana Studios, Summertime Entertainment (II)
Жанр: Мультфильм, мюзикл, семейный
Год выпуска: 2013
Продолжительность: 01:28:13-Перевод: Профессиональный (дублированный)[звук с TS]
Cубтитры: нет
Режиссер: Уилл Финн / Will Finn, Дэн Ст. Пьер / Dan St. Рierre-В ролях: Лиа Мишель, Патрик Стюарт, Джеймс Белуши, Дэн Эйкройд, Келси Грэммер, Меган Хилти, Хью Дэнси, Оливер Платт, Бернадетт Питерс, Мартин Шорт-Описание: Дороти снова магическим образом переносится в страну Оз, чтобы спасти от беды ее жителей. Но оказывается, что старые друзья Дороти - Страшила, Железный Дровосек и Храбрый Лев - исчезли. Путешествуя по стране в поисках своих друзей, Дороти встречает новых попутчиков - Капитана Зефира, Фарфоровую Принцессу и филина Савву. Дороти должна помочь таким разным героям объединиться, чтобы одолеть нового злодея - шута Джестера, который хочет захватить страну Оз при помощи черной магии.-Сэмпл: http://multi-up.com/985787-Качество видео: HDTVRip
Формат видео: AVI
Видео: 720x384 (1.875), 25.000 fps, 2 081 Kbps (0.301 bit/pixel)
Аудио: 44.1 KHz, 2 ch, 128 Kbps, CBR
MediaInfo
General
Complete name : D:\Torrents\Oz.Vozvrashenie.v.Izumrudniy.gorod.2013.Dt.HDTVRip.1400MB.avi
Format : AVI
Format/Info : Audio Video Interleave
File size : 1.37 GiB
Duration : 1h 28mn
Overall bit rate : 2 219 Kbps
Writing application : VirtualDubMod 1.5.10.2 (build 2540/release)
Writing library : VirtualDubMod build 2540/release
Video #0
ID : 0
Format : MPEG-4 Visual
Format profile : Advanced Simple@L5
Format settings, BVOP : 2
Format settings, QPel : No
Format settings, GMC : No warppoints
Format settings, Matrix : Default (MPEG)
Codec ID : XVID
Codec ID/Hint : XviD
Duration : 1h 28mn
Bit rate : 2 081 Kbps
Width : 720 pixels
Height : 384 pixels
Display aspect ratio : 1.85:1
Frame rate : 25.000 fps
Color space : YUV
Chroma subsampling : 4:2:0
Bit depth : 8 bits
Scan type : Progressive
Compression mode : Lossy
Bits/(Pixel*Frame) : 0.301
Stream size : 1.28 GiB (94%)
Writing library : XviD 73
Audio #1
ID : 1
Format : MPEG Audio
Format version : Version 1
Format profile : Layer 3
Codec ID : 55
Codec ID/Hint : MP3
Duration : 1h 28mn
Bit rate mode : Constant
Bit rate : 128 Kbps
Channel count : 2 channels
Sampling rate : 44.1 KHz
Compression mode : Lossy
Stream size : 80.8 MiB (6%)
Alignment : Split accross interleaves
Interleave, duration : 40 ms (1.00 video frame)
Interleave, preload duration : 500 ms
Скриншот c названием фильмаСкриншоты


Показать сообщения:    

Текущее время: 17-Дек 19:23

Часовой пояс: UTC ± 0


Вы не можете начинать темы
Вы не можете отвечать на сообщения
Вы не можете редактировать свои сообщения
Вы не можете удалять свои сообщения
Вы не можете голосовать в опросах
Вы не можете прикреплять файлы к сообщениям
Вы не можете скачивать файлы

!ВНИМАНИЕ!
Сайт не предоставляет электронные версии произведений, а занимается лишь коллекционированием и каталогизацией ссылок, присылаемых и публикуемых на форуме нашими читателями. Если вы являетесь правообладателем какого-либо представленного материала и не желаете, чтобы ссылка на него находилась в нашем каталоге, свяжитесь с нами, и мы незамедлительно удалим ее. Файлы для обмена на трекере предоставлены пользователями сайта, и администрация не несет ответственности за их содержание. Просьба не заливать файлы, защищенные авторскими правами, а также файлы нелегального содержания!