Важное объявление!
У Нас Все раздачи мультитрекерные, при нуле пиров в релизах, можете смело вставать на закачку!
 
Автор Сообщение

димитри37

Стаж:
4 года 2 месяца
Сообщений:
1236

Репутация: 127

[+] [-]
Вне форума [Профиль] [ЛС]

Оз: Великий и Ужасный / Oz: the Great and Powerful
Страна: США
Год выпуска: 2013
Жанр: фэнтези, приключения, комедия, семейный
Продолжительность: 02:10:29
Перевод: Профессиональный (полное дублирование) [Line]
Оригинальная дорожка: Английская
Субтитры: английские
Режиссёр: Сэм Рэйми : Sam Raimi
В главных ролях: Джеймс Франко, Мила Кунис, Рейчел Вайс, Мишель Уильямс, Зак Брафф, Билл Коббс, Джои Кинг, Тони Кокс, Стивен Р. Харт, Эбигейл Спенсер
Роли дублировали: Олег Фёдоров, Светлана Цвиченко, Светлана Кузнецова, Ирина Обрезкова
Описание: Когда ураган забрасывает циркового фокусника Оскара Диггса из пыльного Канзаса в волшебную страну Оз, склонный к мошенничеству циркач полагает, что он поймал удачу за хвост — ведь с помощью своих трюков он с легкостью может добыть в новых землях и славу и богатство. Однако его ждёт встреча с тремя чародейками, Теодорой, Эванорой и Глиндой, которые сомневаются в том, тот ли это великий волшебник, появления которого ждали легковерные жители страны Оз. Волей-неволей, пришелец оказывается втянутым в противостояние эпического масштаба, и ему приходится использовать весь свой «магический» арсенал, с добавлением толики настоящего волшебства. В ситуации выбора между Добром и Злом, Оскару Диггсу предстоит не только стать Великим и Ужасным Волшебником из Страны Оз, но и немного измениться к лучшему.

Качество: HDRip 720p
Формат: MKV
Видео кодек: AVC
Аудио кодек: АС3 : DTS
Видео: 1280x536, 23.976 fps, ~4 476 kbps avg, 0.272 bit/pixel
Аудио #1: 48 kHz, AC3 Dolby Digital, 3/2 (L,C,R,l,r) + LFE ch, ~448 kbps
Аудио #2: 48.0 kHz, DTS, 6 ch, ~ 1510 kbps
Субтитры: softsub (SRT)
навигация по главам: 52 главы

скриншоты

MediaInfo

Общее
Уникальный идентификатор : 212728132208402241945916156821250391969 (0xA009F2AF09CF9F53A30125562FF23FA1)
Полное имя : D:\Оз Великий и Ужасный\Oz the Great and Powerful.2013.HDRip 720p.mkv
Формат : Matroska
Версия формата : Version 4 / Version 2
Размер файла : 5,87 Гбайт
Продолжительность : 2 ч. 10 м.
Общий поток : 6435 Кбит/сек
Дата кодирования : UTC 2013-05-25 00:22:41
Программа кодирования : mkvmerge v6.1.0 ('Old Devil') built on Mar 2 2013 14:32:37
Библиотека кодирования : libebml v1.3.0 + libmatroska v1.4.0
Видео
Идентификатор : 1
Формат : AVC
Формат/Информация : Advanced Video Codec
Профиль формата : High@L4.1
Параметр CABAC формата : Да
Параметр ReFrames формата : 5 кадров
Идентификатор кодека : V_MPEG4/ISO/AVC
Продолжительность : 2 ч. 10 м.
Битрейт : 4476 Кбит/сек
Ширина : 1280 пикселей
Высота : 536 пикселей
Соотношение сторон : 2,40:1
Частота кадров : 23,976 кадра/сек
Цветовое пространство : YUV
Субдискретизация насыщенности : 4:2:0
Битовая глубина : 8 бит
Тип развёртки : Прогрессивная
Бит/(Пиксели*Кадры) : 0.272
Размер потока : 3,96 Гбайт (68%)
Библиотека кодирования : x264 core 133 r2334 a3ac64b
Настройки программы : cabac=1 / ref=5 / deblock=1:0:0 / analyse=0x3:0x133 / me=umh / subme=7 / psy=1 / psy_rd=1.00:0.00 / mixed_ref=1 / me_range=16 / chroma_me=1 / trellis=1 / 8x8dct=1 / cqm=0 / deadzone=21,11 / fast_pskip=0 / chroma_qp_offset=-2 / threads=18 / lookahead_threads=3 / sliced_threads=0 / nr=0 / decimate=1 / interlaced=0 / bluray_compat=0 / constrained_intra=0 / bframes=3 / b_pyramid=2 / b_adapt=1 / b_bias=0 / direct=1 / weightb=1 / open_gop=0 / weightp=2 / keyint=250 / keyint_min=23 / scenecut=40 / intra_refresh=0 / rc_lookahead=40 / rc=2pass / mbtree=1 / bitrate=4476 / ratetol=1.0 / qcomp=0.60 / qpmin=0 / qpmax=69 / qpstep=4 / cplxblur=20.0 / qblur=0.5 / ip_ratio=1.40 / aq=1:1.00
Язык : English
Default : Да
Forced : Нет
Аудио #1
Идентификатор : 2
Формат : AC-3
Формат/Информация : Audio Coding 3
Расширение режима : CM (complete main)
Идентификатор кодека : A_AC3
Продолжительность : 2 ч. 10 м.
Вид битрейта : Постоянный
Битрейт : 448 Кбит/сек
Каналы : 6 каналов
Расположение каналов : Front: L C R, Side: L R, LFE
Частота : 48,0 КГц
Битовая глубина : 16 бит
Метод сжатия : С потерями
Размер потока : 418 Мбайт (7%)
Заголовок : DUB
Язык : Russian
Default : Да
Forced : Нет
Аудио #2
Идентификатор : 3
Формат : DTS
Формат/Информация : Digital Theater Systems
Идентификатор кодека : A_DTS
Продолжительность : 2 ч. 10 м.
Вид битрейта : Постоянный
Битрейт : 1510 Кбит/сек
Каналы : 6 каналов
Расположение каналов : Front: L C R, Side: L R, LFE
Частота : 48,0 КГц
Битовая глубина : 24 бит
Метод сжатия : С потерями
Размер потока : 1,38 Гбайт (23%)
Заголовок : ENG
Язык : English
Default : Нет
Forced : Нет
Текст
Идентификатор : 4
Формат : UTF-8
Идентификатор кодека : S_TEXT/UTF8
Идентификатор кодека/Информация : UTF-8 Plain Text
Заголовок : Eng Sub
Язык : English
Default : Нет
Forced : Нет
Меню
00:00:00.000 : en:00:00:00.000
00:02:37.699 : en:00:02:37.699
00:06:16.960 : en:00:06:16.960
00:09:57.555 : en:00:09:57.555
00:11:32.692 : en:00:11:32.692
00:15:20.753 : en:00:15:20.753
00:17:47.191 : en:00:17:47.191
00:20:29.478 : en:00:20:29.478
00:24:01.982 : en:00:24:01.982
00:24:49.780 : en:00:24:49.780
00:27:01.662 : en:00:27:01.662
00:29:37.359 : en:00:29:37.359
00:32:43.420 : en:00:32:43.420
00:34:30.193 : en:00:34:30.193
00:37:22.657 : en:00:37:22.657
00:38:57.377 : en:00:38:57.377
00:40:39.145 : en:00:40:39.145
00:42:09.944 : en:00:42:09.944
00:42:52.445 : en:00:42:52.445
00:45:33.481 : en:00:45:33.481
00:47:22.840 : en:00:47:22.840
00:48:32.409 : en:00:48:32.409
00:53:29.832 : en:00:53:29.832
00:55:22.653 : en:00:55:22.653
00:57:15.932 : en:00:57:15.932
00:59:10.839 : en:00:59:10.839
01:02:05.263 : en:01:02:05.263
01:05:33.221 : en:01:05:33.221
01:06:21.102 : en:01:06:21.102
01:09:55.775 : en:01:09:55.775
01:12:20.836 : en:01:12:20.836
01:15:37.783 : en:01:15:37.783
01:18:20.321 : en:01:18:20.321
01:19:47.783 : en:01:19:47.783
01:21:27.883 : en:01:21:27.883
01:26:16.171 : en:01:26:16.171
01:28:08.783 : en:01:28:08.783
01:30:33.219 : en:01:30:33.219
01:34:24.117 : en:01:34:24.117
01:36:57.437 : en:01:36:57.437
01:37:35.975 : en:01:37:35.975
01:41:30.876 : en:01:41:30.876
01:42:30.394 : en:01:42:30.394
01:45:51.762 : en:01:45:51.762
01:48:33.424 : en:01:48:33.424
01:51:23.802 : en:01:51:23.802
01:54:26.318 : en:01:54:26.318
01:55:54.072 : en:01:55:54.072
01:57:58.405 : en:01:57:58.405
01:59:34.417 : en:01:59:34.417
02:02:49.571 : en:02:02:49.571
02:04:32.757 : en:02:04:32.757
-
Показать сообщения:    

Текущее время: Сегодня 17:00

Часовой пояс: GMT



Вы не можете начинать темы
Вы не можете отвечать на сообщения
Вы не можете редактировать свои сообщения
Вы не можете удалять свои сообщения
Вы не можете голосовать в опросах
Вы не можете прикреплять файлы к сообщениям
Вы не можете скачивать файлы