Важное объявление!
У Нас Все раздачи мультитрекерные, при нуле пиров в релизах, можете смело вставать на закачку!
Статистика раздачи
Размер:     |    Зарегистрирован:     |    Скачан:     |   
Нет
 
     
 
 
Автор Сообщение

HUNTER

Стаж:
5 лет 1 месяц
Сообщений:
68429

Репутация: 101

[+] [-]
Вне форума [Профиль] [ЛС]

Оз: Великий и Ужасный / Oz the Great and Powerful-
Год выпуска: 2013
Страна: США
Жанр: фэнтези, приключения, комедия, семейный
Продолжительность: 02:10:29
Перевод: Профессиональный (дублированный)
Cубтитры: русские, украинские, английские-Режиссер: Сэм Рэйми / Sam Raimi
В ролях: Джеймс Франко, Мила Кунис, Рейчел Вайс, Мишель Уильямс, Зак Брафф, Билл Коббс, Джои Кинг, Тони Кокс, Стивен Р. Харт, Эбигейл Спенсер.
Описание: Оскар Диггс — молодой фокусник, зарабатывающий себе на жизнь не столько волшебством, сколько мошенничеством. Однажды он попадает в эпицентр сильного урагана, который переносит его в удивительное место. Оказавшись в мире с уникальной природой и невиданными существами, Оскар думает, что все это всего лишь сон, но вскоре он узнает, что попал в волшебную страну Оз. Молодой человек понимает, что здесь для него открываются огромные перспективы, ведь местные жители очень наивны. Однако, Диггс вынужден изменить свои планы после того, как он встретился с несколькими колдуньями. После этого ему становится известно, что жители этой страны уже давно ждут Великого волшебника, который, согласно древнему пророчеству, должен решить давний конфликт и вернуть мир. Никто из жителей не знает, что он всего лишь человек, а не могущественный волшебник, поэтому очень надеются на его помощь. Оскару предстоит обучиться магии, чтобы не подвести жителей Изумрудного города и всей волшебной страны.-Rip Killbrain
Качество: BDRip
Контейнер: MKV | Sample
Формат 3D: Half OverUnder / Вертикальная анаморфная стереопара
Видео кодек: x264
Аудио кодек: AC3
Видео: 1920x1080 (16:9), 23.976 fps, x264@L4.1 ~8000 kbps avg
Аудио 1: Russian 48 kHz, AC3, 3/2 (L,C,R,l,r) + LFE ch, 640.00 kbps avg | BD EUR
Аудио 2: Ukrainian 48 kHz, AC3, 3/2 (L,C,R,l,r) + LFE ch, 640.00 kbps avg | BD EUR
Аудио 3: English 48 kHz, AC3, 3/2 (L,C,R,l,r) + LFE ch, 640.00 kbps avg | Original

Скриншоты

Медиаинфо

Общее
Формат : Matroska
Версия формата : Version 4 / Version 2
Размер файла : 9,05 Гбайт
Продолжительность : 2 ч. 10 м.
Общий поток : 9923 Кбит/сек
Название фильма : Oz the Great and Powerful 3D (2013) by Killbrain
Дата кодирования : UTC 2013-07-07 05:09:21
Программа кодирования : mkvmerge v6.2.0 ('Promised Land') built on Apr 28 2013 12:22:01
Библиотека кодирования : libebml v1.3.0 + libmatroska v1.4.0
Видео
Идентификатор : 1
Формат : AVC
Формат/Информация : Advanced Video Codec
Профиль формата : High@L4.1
Параметр CABAC формата : Да
Параметр ReFrames формата : 4 кадра
Идентификатор кодека : V_MPEG4/ISO/AVC
Продолжительность : 2 ч. 10 м.
Битрейт : 8000 Кбит/сек
Ширина : 1920 пикселей
Высота : 1080 пикселей
Соотношение сторон : 16:9
Режим частоты кадров : Постоянный
Частота кадров : 23,976 кадра/сек
Цветовое пространство : YUV
Субдискретизация насыщенности : 4:2:0
Битовая глубина : 8 бит
Тип развёртки : Прогрессивная
Бит/(Пиксели*Кадры) : 0.161
Размер потока : 7,11 Гбайт (79%)
Заголовок : Oz the Great and Powerful 3D (2013)
Библиотека кодирования : x264 core 132 r2310 76a5c3a
Настройки программы : cabac=1 / ref=4 / deblock=1:-2:-2 / analyse=0x3:0x113 / me=umh / subme=10 / psy=1 / psy_rd=1.00:0.15 / mixed_ref=1 / me_range=24 / chroma_me=1 / trellis=2 / 8x8dct=1 / cqm=0 / deadzone=21,11 / fast_pskip=0 / chroma_qp_offset=-3 / threads=3 / lookahead_threads=1 / sliced_threads=0 / nr=0 / decimate=0 / interlaced=0 / bluray_compat=0 / constrained_intra=0 / bframes=6 / b_pyramid=2 / b_adapt=2 / b_bias=0 / direct=3 / weightb=1 / open_gop=0 / weightp=2 / keyint=240 / keyint_min=24 / scenecut=40 / intra_refresh=0 / rc_lookahead=60 / rc=2pass / mbtree=0 / bitrate=8000 / ratetol=1.0 / qcomp=0.65 / qpmin=0 / qpmax=69 / qpstep=4 / cplxblur=20.0 / qblur=0.5 / vbv_maxrate=40000 / vbv_bufsize=30000 / nal_hrd=none / frame-packing=4 / ip_ratio=1.40 / pb_ratio=1.30 / aq=2:0.75
Язык : English
Default : Да
Forced : Нет
Аудио #1
Идентификатор : 2
Формат : AC-3
Формат/Информация : Audio Coding 3
Расширение режима : CM (complete main)
Параметр Endianness формата : Big
Идентификатор кодека : A_AC3
Продолжительность : 2 ч. 10 м.
Вид битрейта : Постоянный
Битрейт : 640 Кбит/сек
Каналы : 6 каналов
Расположение каналов : Front: L C R, Side: L R, LFE
Частота : 48,0 КГц
Битовая глубина : 16 бит
Метод сжатия : С потерями
Размер потока : 597 Мбайт (6%)
Заголовок : AC3 / 5.1 ch / 640 kbps / Русский дубляж, BD EUR
Язык : Russian
Default : Да
Forced : Нет
Аудио #2
Идентификатор : 3
Формат : AC-3
Формат/Информация : Audio Coding 3
Расширение режима : CM (complete main)
Параметр Endianness формата : Big
Идентификатор кодека : A_AC3
Продолжительность : 2 ч. 10 м.
Вид битрейта : Постоянный
Битрейт : 640 Кбит/сек
Каналы : 6 каналов
Расположение каналов : Front: L C R, Side: L R, LFE
Частота : 48,0 КГц
Битовая глубина : 16 бит
Метод сжатия : С потерями
Размер потока : 597 Мбайт (6%)
Заголовок : AC3 / 5.1 ch / 640 kbps / Украинский дубляж, BD EUR
Язык : Ukrainian
Default : Нет
Forced : Нет
Аудио #3
Идентификатор : 4
Формат : AC-3
Формат/Информация : Audio Coding 3
Расширение режима : CM (complete main)
Параметр Endianness формата : Big
Идентификатор кодека : A_AC3
Продолжительность : 2 ч. 10 м.
Вид битрейта : Постоянный
Битрейт : 640 Кбит/сек
Каналы : 6 каналов
Расположение каналов : Front: L C R, Side: L R, LFE
Частота : 48,0 КГц
Битовая глубина : 16 бит
Метод сжатия : С потерями
Размер потока : 597 Мбайт (6%)
Заголовок : AC3 / 5.1 ch / 640 kbps / Английский original, BD EUR
Язык : English
Default : Нет
Forced : Нет
Текст #1
Идентификатор : 5
Формат : UTF-8
Идентификатор кодека : S_TEXT/UTF8
Идентификатор кодека/Информация : UTF-8 Plain Text
Заголовок : Forced, BD EUR
Язык : Russian
Default : Да
Forced : Нет
Текст #2
Идентификатор : 6
Формат : UTF-8
Идентификатор кодека : S_TEXT/UTF8
Идентификатор кодека/Информация : UTF-8 Plain Text
Заголовок : Full, BD EUR
Язык : Russian
Default : Нет
Forced : Нет
Текст #3
Идентификатор : 7
Формат : UTF-8
Идентификатор кодека : S_TEXT/UTF8
Идентификатор кодека/Информация : UTF-8 Plain Text
Заголовок : Forced, BD EUR
Язык : Ukrainian
Default : Нет
Forced : Нет
Текст #4
Идентификатор : 8
Формат : UTF-8
Идентификатор кодека : S_TEXT/UTF8
Идентификатор кодека/Информация : UTF-8 Plain Text
Заголовок : Full, BD EUR
Язык : Ukrainian
Default : Нет
Forced : Нет
Текст #5
Идентификатор : 9
Формат : UTF-8
Идентификатор кодека : S_TEXT/UTF8
Идентификатор кодека/Информация : UTF-8 Plain Text
Заголовок : Full, BD EUR
Язык : English
Default : Нет
Forced : Нет
Текст #6
Идентификатор : 10
Формат : UTF-8
Идентификатор кодека : S_TEXT/UTF8
Идентификатор кодека/Информация : UTF-8 Plain Text
Заголовок : SDH, BD EUR
Язык : English
Default : Нет
Forced : Нет
Текст #7
Идентификатор : 11
Формат : UTF-8
Идентификатор кодека : S_TEXT/UTF8
Идентификатор кодека/Информация : UTF-8 Plain Text
Заголовок : SDH-COLOR, BD EUR
Язык : English
Default : Нет
Forced : Нет
Меню
00:00:00.000 : :Chapter 01
00:02:37.866 : :Chapter 02
00:06:17.335 : :Chapter 03
00:09:58.139 : :Chapter 04
00:11:33.401 : :Chapter 05
00:15:21.670 : :Chapter 06
00:17:48.275 : :Chapter 07
00:20:30.687 : :Chapter 08
00:24:03.400 : :Chapter 09
00:24:51.281 : :Chapter 10
00:27:03.288 : :Chapter 11
00:29:39.152 : :Chapter 12
00:32:45.380 : :Chapter 13
00:34:32.278 : :Chapter 14
00:37:24.909 : :Chapter 15
00:38:59.712 : :Chapter 16
00:40:41.564 : :Chapter 17
00:42:12.488 : :Chapter 18
00:42:55.030 : :Chapter 19
00:45:36.233 : :Chapter 20
00:47:25.676 : :Chapter 21
00:48:35.329 : :Chapter 22
00:53:33.043 : :Chapter 23
00:55:25.989 : :Chapter 24
00:57:19.352 : :Chapter 25
00:59:14.384 : :Chapter 26
01:02:08.975 : :Chapter 27
01:05:37.141 : :Chapter 28
01:06:25.064 : :Chapter 29
01:09:59.570 : :Chapter 30
01:12:25.174 : :Chapter 31
01:15:42.329 : :Chapter 32
01:18:25.033 : :Chapter 33
01:19:52.579 : :Chapter 34
01:21:32.762 : :Chapter 35
01:26:21.342 : :Chapter 36
01:28:14.080 : :Chapter 37
01:30:38.641 : :Chapter 38
01:34:29.789 : :Chapter 39
01:37:03.234 : :Chapter 40
01:37:41.814 : :Chapter 41
01:41:36.965 : :Chapter 42
01:42:36.525 : :Chapter 43
01:45:58.101 : :Chapter 44
01:48:39.930 : :Chapter 45
01:51:30.475 : :Chapter 46
01:54:33.199 : :Chapter 47
01:56:01.037 : :Chapter 48
01:58:05.495 : :Chapter 49
01:59:41.591 : :Chapter 50
02:02:56.952 : :Chapter 51
02:04:40.222 : :Chapter 52

_________________
Показать сообщения:    

Текущее время: Сегодня 12:50

Часовой пояс: GMT



Вы не можете начинать темы
Вы не можете отвечать на сообщения
Вы не можете редактировать свои сообщения
Вы не можете удалять свои сообщения
Вы не можете голосовать в опросах
Вы не можете прикреплять файлы к сообщениям
Вы не можете скачивать файлы