Ивановский Торрент трекер
Яндекс.Погода
 

[Цитировать]
HUNTER

Одноклассники 2 / Grown Ups 2
Год выпуска: 2013
Страна: США, Columbia Pictures, Happy Madison Productions, Sony Pictures Entertainment (SPE)
Жанр: Комедия
Продолжительность: 01:40:58
Перевод: Профессиональный (дублированный) | Line
Субтитры: Вшитые отключаемые
Язык субтитров: Английский (PGS) , Французкий (PGS) , Испанский (PGS)
Режиссер: Деннис Дуган / Dennis Dugan
В ролях:Адам Сэндлер, Кевин Джеймс, Крис Рок, Дэвид Спейд, Сальма Хайек, Майя Рудольф, Мария Белло, Ник Свардсон, Стив Бушеми, Колин Куинн
Описание: После того как Ленни Федер переезжает с семьей обратно в родной город, он и его друзья извлекут немало уроков, когда их дети окончат школу…

Знаете ли вы, что...

Первый сиквел Адама Сэндлера.
СПОЙЛЕРОШИБКА
Оливеру Куперу была предложена роль одного из членов студенческого братства, но он отказался из-за несогласованности расписаний съемок.
Роб Шнайдер не смог принять участие в съёмках фильма из-за рождения дочери

Ошибки в фильме

После того как Адам падает с аэробной машины, две девушки проходят за ним дважды.
В сцене, где впервые появляется Фургон Ford, на котором ездит Курт, он звучит как Dodge Caravan (судя по звуку стартера и электромагнита коробки передач). Во второй раз выхлопные газы выбрасываются со звуком характерным для двигателя с четырьмя цилиндрами, хотя у этого фургона их на самом деле восемь.

Рецензия, отзыв о фильме

Легкая комедия выходного дня
Возможно вызову гнев многих, сказав, что лично мне фильм понравился. Не разделяю популярное мнение о тупом, туалетном, не смешном юморе, используемом в данном фильме и вообще, в фильмах Сэндлера.
Не стоит оценивать Одноклассники 2 столь строго. Этот фильм не претендует на какую-то изысканность или утонченность в плане юмора, это простой, легкий фильм, не всегда смешной, но порой достаточно забавный. Да, в некоторых моментах бывает совсем не смешно и предсказуемо, но ничего идеального нет, вот и очередное творение, мною любимого, Адама Сэндлера не стало исключением. Помимо набора нескончаемых шуток разного качества фильм несет еще и какую-никакую моральную ценность, что является весомым плюсом.
В общем, фильм плотно стоит в ряду похожих комедий от Happy Madison, ничем особо не выделяясь ни в какую из сторон. Это не шедевр, но и не «бездарная наитупейшая комедия» как её оценивают некоторые. Одноклассники 2 рекомендуется для просмотра в хорошей компании не обременённой каким бы то ни было официозом или пафосом, желающей просто приятно провести время посмотрев хороший фильм не несущий определенной смысловой нагрузки. Любителям фильмов от Сэндлера и Ко обязателен к просмотру!
P.S. Шак порадовал!
8 из 10

Качество: BDRemux
Формат: MKV
Видео кодек: H.264
Видео: ~27,8 Мбит/сек, 1920x1080 (16:9), 23,976 кадра/сек
Аудио №1: AC3, 2 канала, 192 Кбит/сек, CBR, 48,0 кГц (Русский)
Аудио №2: DTS, 6 каналов, 1509 Кбит/сек, CBR, 48,0 кГц (Английский, оригинал)
Аудио №3: AC3, 6 каналов, 640 Кбит/сек, CBR, 48,0 кГц (Английский, комментарии)
Аудио №4: DTS, 6 каналов, 1509 Кбит/сек, CBR, 48,0 кГц (Французский)

MediaInfo 0.7.64

Общее
Уникальный идентификатор : 204683099651383769766083065519415032456 (0x99FC87F464140831A75021018CA8FA88)
Полное имя : D:moviesOdnoklassniki.2.2013.BD-Remux 1080p. Dub. [Line].mkv
Формат : Matroska
Версия формата : Version 2
Размер файла : 23,3 Гбайт
Продолжительность : 1 ч. 40 м.
Режим общего битрейта : Переменный
Общий поток : 33,1 Мбит/сек
Название фильма : Odnoklassniki.2.2013.BD-Remux 1080p. Dub. [Line].by.grab777.mkv
Дата кодирования : UTC 2013-10-21 09:24:24
Программа кодирования : mkvmerge v5.8.0 ('No Sleep / Pillow') built on Sep 2 2012 15:37:04
Библиотека кодирования : libebml v1.2.3 + libmatroska v1.3.0
Видео
Идентификатор : 1
Формат : AVC
Формат/Информация : Advanced Video Codec
Профиль формата : High@L4.1
Параметр CABAC формата : Да
Параметр ReFrames формата : 2 кадра
Идентификатор кодека : V_MPEG4/ISO/AVC
Продолжительность : 1 ч. 40 м.
Вид битрейта : Переменный
Ширина : 1920 пикселей
Высота : 1080 пикселей
Соотношение сторон : 16:9
Режим частоты кадров : Постоянный
Частота кадров : 23,976 кадра/сек
Цветовое пространство : YUV
Субдискретизация насыщенности : 4:2:0
Битовая глубина : 8 бит
Тип развёртки : Прогрессивная
Default : Да
Forced : Нет
Аудио #1
Идентификатор : 2
Формат : AC-3
Формат/Информация : Audio Coding 3
Расширение режима : CM (complete main)
Параметр Endianness формата : Big
Идентификатор кодека : A_AC3
Продолжительность : 1 ч. 40 м.
Вид битрейта : Постоянный
Битрейт : 192 Кбит/сек
Каналы : 2 канала
Расположение каналов : Front: L R
Частота : 48,0 КГц
Битовая глубина : 16 бит
Метод сжатия : С потерями
Размер потока : 139 Мбайт (1%)
Заголовок : Odnoklassniki.2.2013. Dub. [Line]
Язык : Russian
Default : Да
Forced : Нет
Аудио #2
Идентификатор : 3
Формат : DTS
Формат/Информация : Digital Theater Systems
Профиль формата : MA / Core
Режим : 16
Параметр Endianness формата : Big
Идентификатор кодека : A_DTS
Продолжительность : 1 ч. 40 м.
Вид битрейта : Переменный
Битрейт : Неизвестно / 1509 Кбит/сек
Каналы : 6 каналов
Расположение каналов : Front: L C R, Side: L R, LFE
Частота : 48,0 КГц
Битовая глубина : 16 бит
Метод сжатия : Без потерь / Lossy
Default : Нет
Forced : Нет
Аудио #3
Идентификатор : 4
Формат : AC-3
Формат/Информация : Audio Coding 3
Расширение режима : CM (complete main)
Параметр Endianness формата : Big
Идентификатор кодека : A_AC3
Продолжительность : 1 ч. 40 м.
Вид битрейта : Постоянный
Битрейт : 640 Кбит/сек
Каналы : 6 каналов
Расположение каналов : Front: L C R, Side: L R, LFE
Частота : 48,0 КГц
Битовая глубина : 16 бит
Метод сжатия : С потерями
Размер потока : 462 Мбайт (2%)
Default : Нет
Forced : Нет
Аудио #4
Идентификатор : 5
Формат : DTS
Формат/Информация : Digital Theater Systems
Профиль формата : MA / Core
Режим : 16
Параметр Endianness формата : Big
Идентификатор кодека : A_DTS
Продолжительность : 1 ч. 40 м.
Вид битрейта : Переменный
Битрейт : Неизвестно / 1509 Кбит/сек
Каналы : 6 каналов
Расположение каналов : Front: L C R, Side: L R, LFE
Частота : 48,0 КГц
Битовая глубина : 16 бит
Метод сжатия : Без потерь / Lossy
Default : Нет
Forced : Нет
Текст #1
Идентификатор : 6
Формат : PGS
Режим смешивания : zlib
Идентификатор кодека : S_HDMV/PGS
Идентификатор кодека/Информация : The same subtitle format used on BDs/HD-DVDs
Default : Да
Forced : Нет
Текст #2
Идентификатор : 7
Формат : PGS
Режим смешивания : zlib
Идентификатор кодека : S_HDMV/PGS
Идентификатор кодека/Информация : The same subtitle format used on BDs/HD-DVDs
Default : Нет
Forced : Нет
Текст #3
Идентификатор : 8
Формат : PGS
Режим смешивания : zlib
Идентификатор кодека : S_HDMV/PGS
Идентификатор кодека/Информация : The same subtitle format used on BDs/HD-DVDs
Default : Нет
Forced : Нет
Текст #4
Идентификатор : 9
Формат : PGS
Режим смешивания : zlib
Идентификатор кодека : S_HDMV/PGS
Идентификатор кодека/Информация : The same subtitle format used on BDs/HD-DVDs
Default : Нет
Forced : Нет
Текст #5
Идентификатор : 10
Формат : PGS
Режим смешивания : zlib
Идентификатор кодека : S_HDMV/PGS
Идентификатор кодека/Информация : The same subtitle format used on BDs/HD-DVDs
Default : Нет
Forced : Нет

Скриншоты

Показать сообщения:    

Текущее время: 19-Сен 16:16

Часовой пояс: UTC - 1


Вы не можете начинать темы
Вы не можете отвечать на сообщения
Вы не можете редактировать свои сообщения
Вы не можете удалять свои сообщения
Вы не можете голосовать в опросах
Вы не можете прикреплять файлы к сообщениям
Вы не можете скачивать файлы

!ВНИМАНИЕ!
Сайт не предоставляет электронные версии произведений, а занимается лишь коллекционированием и каталогизацией ссылок, присылаемых и публикуемых на форуме нашими читателями. Если вы являетесь правообладателем какого-либо представленного материала и не желаете, чтобы ссылка на него находилась в нашем каталоге, свяжитесь с нами, и мы незамедлительно удалим ее. Файлы для обмена на трекере предоставлены пользователями сайта, и администрация не несет ответственности за их содержание. Просьба не заливать файлы, защищенные авторскими правами, а также файлы нелегального содержания!