Одной левой (Армен Ананикян, Виталий Рейнгеверц) [2015, комедия, WEB DLRip-AVC] [iTunes] :: Ивановский Торрент трекер
Важное объявление!
У Нас Все раздачи мультитрекерные, при нуле пиров в релизах, можете смело вставать на закачку!
Статистика раздачи
Размер:     |    Зарегистрирован:     |    Скачан:     |   
Нет
 
     
 
 
Автор Сообщение

HUNTER

Стаж:
4 года 11 месяцев
Сообщений:
66098

Репутация: 101

[+] [-]
Вне форума [Профиль] [ЛС]

Одной левой--
    Год выпуска » 2015
    Страна » Россия
    Жанр » Комедия
    Продолжительность » 01:19:00
    Перевод » Оригинал [iTunes]
    Субтитры » Нет
В ролях
» Дмитрий Нагиев, Полина Гагарина, Константин Крюков, Михаил Галустян, Ян Цапник, Роман Ладнев, Константин Юшкевич, Дарья Храмцова, Наталья Костенева, Армен Ананикян
Режиссёр
» Армен Ананикян, Виталий Рейнгеверц » Макс — успешный скульптор. Он убежденный холостяк. У него нет отбоя от девушек и выгодных заказов. Привычный ход жизни нарушает собственная правая рука Макса. Она перестает слушаться его и ведет себя, как рука избалованной девушки. Друзья, клиенты и поклонницы думают, что Макс сошел с ума. Но причина не в этом, в его руку вселилась душа незнакомки. Справится ли герой одной левой?--
    Качество » WEB DLRip-AVC
    Формат » MKV
    Видео кодек » AVC
    Аудио кодек » AC3
    Видео » AVC at 3324 Кбит/сек, 1024 x 576 at 25.000 fps
    Аудио » AC3, 384 kb/s, 6 каналов, 48 Кгц
» Автор рипа: Tarkin

--

MI

Код: copyText_writeLink('this.parentNode.parentNode.nextSibling.nextSibling');
Код:
Формат                                   : Matroska
Версия формата                           : Version 2
Размер файла                             : 2,05 Гбайт
Продолжительность                        : 1 ч. 19 м.
Общий поток                              : 3708 Кбит/сек
Дата кодирования                         : UTC 2015-06-05 09:55:31
Программа кодирования                    : mkvmerge v6.1.0 ('Old Devil') built on Mar  4 2013 09:10:42
Библиотека кодирования                   : libebml v1.3.0 + libmatroska v1.4.0
Видео
Идентификатор                            : 1
Формат                                   : AVC
Формат/Информация                        : Advanced Video Codec
Профиль формата                          : High@L4.1
Параметр CABAC формата                   : Да
Параметр ReFrames формата                : 8 кадров
Идентификатор кодека                     : V_MPEG4/ISO/AVC
Продолжительность                        : 1 ч. 19 м.
Битрейт                                  : 3324 Кбит/сек
Ширина                                   : 1024 пикселя
Высота                                   : 576 пикселей
Соотношение сторон                       : 16:9
Режим частоты кадров                     : Постоянный
Частота кадров                           : 25,000 кадров/сек
Цветовое пространство                    : YUV
Субдискретизация насыщенности            : 4:2:0
Битовая глубина                          : 8 бит
Тип развёртки                            : Прогрессивная
Бит/(Пиксели*Кадры)                      : 0.225
Размер потока                            : 1,80 Гбайт (88%)
Библиотека кодирования                   : x264 core 130 r2273 b3065e6
Настройки программы                      : cabac=1 / ref=8 / deblock=1:-1:-2 / analyse=0x3:0x133 / me=umh / subme=11 / psy=1 / psy_rd=1.00:0.10 / mixed_ref=1 / me_range=32 / chroma_me=1 / trellis=2 / 8x8dct=1 / cqm=0 / deadzone=21,11 / fast_pskip=0 / chroma_qp_offset=-3 / threads=6 / lookahead_threads=1 / sliced_threads=0 / nr=0 / decimate=0 / interlaced=0 / bluray_compat=0 / constrained_intra=0 / bframes=3 / b_pyramid=2 / b_adapt=2 / b_bias=0 / direct=3 / weightb=1 / open_gop=0 / weightp=2 / keyint=250 / keyint_min=25 / scenecut=40 / intra_refresh=0 / rc_lookahead=50 / rc=2pass / mbtree=1 / bitrate=3324 / ratetol=1.0 / qcomp=0.60 / qpmin=0 / qpmax=69 / qpstep=4 / cplxblur=20.0 / qblur=0.5 / ip_ratio=1.40 / aq=1:1.00
Default                                  : Да
Forced                                   : Нет
Аудио
Идентификатор                            : 2
Формат                                   : AC-3
Формат/Информация                        : Audio Coding 3
Расширение режима                        : CM (complete main)
Параметр Endianness формата              : Big
Идентификатор кодека                     : A_AC3
Продолжительность                        : 1 ч. 19 м.
Вид битрейта                             : Постоянный
Битрейт                                  : 384 Кбит/сек
Каналы                                   : 6 каналов
Расположение каналов                     : Front: L C R, Side: L R, LFE
Частота                                  : 48,0 КГц
Битовая глубина                          : 16 бит
Метод сжатия                             : С потерями
Размер потока                            : 217 Мбайт (10%)
Default                                  : Да
Forced                                   : Нет

Скриншоты


_________________
Показать сообщения:    

Текущее время: Сегодня 09:01

Часовой пояс: GMT



Вы не можете начинать темы
Вы не можете отвечать на сообщения
Вы не можете редактировать свои сообщения
Вы не можете удалять свои сообщения
Вы не можете голосовать в опросах
Вы не можете прикреплять файлы к сообщениям
Вы не можете скачивать файлы