Однажды с... Александром Лазуткиным [2012, документальный, TVRip] :: Ивановский Торрент трекер
Важное объявление!
У Нас Все раздачи мультитрекерные, при нуле пиров в релизах, можете смело вставать на закачку!
Статистика раздачи
Размер:     |    Зарегистрирован:     |    Скачан:     |   
Нет
 
     
 
 
Автор Сообщение

HUNTER

Стаж:
4 года 11 месяцев
Сообщений:
66090

Репутация: 101

[+] [-]
Вне форума [Профиль] [ЛС]

Однажды с... Александром Лазуткиным
Дата/Год выпуска: 2012
Страна: Россия
Жанр: документальный
Продолжительность: 00:18:43
Перевод: Не требуется
Описание: Многие дети на вопрос о будущей профессии отвечают: хочу стать космонавтом! Если бы все они осуществили свою детскую мечту, то в космосе уже давно негде было бы яблоку упасть...
Он решил стать космонавтом в раннем детстве и с тех самых пор подчинил свою жизнь выполнению этой мечты. Что помогло ему не свернуть с этого пути длинною более 30 лет, какие препятствия встречались ему и каков был сам полет? Эту информацию добывал ведущий программы во время своего очередного расследования.
Доп. информация: производство ЗАО "Первый канал. Всемирная сеть"
качество: TVRip
формат: AVI
Видео: 1500 Кбит/сек, 720 x 536 (1.343), 25.000 fps
Аудио: 128 Кбит/сек, 2 канала, 48,0 КГц
MediaInfo
ОбщееПолное имя : T:\Мои раздачи\Однажды с... Александром Лазуткиным (2012)\Однажды с... Александром Лазуткиным (2012).aviФормат : AVIФормат/Информация : Audio Video InterleaveРазмер файла : 219 МбайтПродолжительность : 18 м.Общий поток : 1638 Кбит/секПрограмма кодирования : VirtualDubMod 1.5.10.3 | www.virtualdub-fr.org || (build 2550/release)Библиотека кодирования : VirtualDubMod build 2550/release
ВидеоИдентификатор : 0Формат : MPEG-4 VisualПрофиль формата : Advanced Simple@L5Параметр BVOP формата : 2Параметр QPel формата : НетПараметр GMC формата : Без точки переходаПараметр матрицы формата : Default (MPEG)Идентификатор кодека : XVIDИдентификатор кодека/Подсказка : XviDПродолжительность : 18 м.Битрейт : 1500 Кбит/секШирина : 720 пикселейВысота : 536 пикселейСоотношение сторон : 4:3Частота кадров : 25,000 кадров/секЦветовое пространство : YUVСубдискретизация насыщенности : 4:2:0Битовая глубина : 8 битТип развёртки : ПрогрессивнаяМетод сжатия : С потерямиБит/(Пиксели*Кадры) : 0.156Размер потока : 201 Мбайт (92%)Библиотека кодирования : XviD 1.2.1 (UTC 2008-12-04)
АудиоИдентификатор : 1Формат : MPEG AudioВерсия формата : Version 1Профиль формата : Layer 3Идентификатор кодека : 55Идентификатор кодека/Подсказка : MP3Продолжительность : 18 м.Вид битрейта : ПостоянныйБитрейт : 128 Кбит/секКаналы : 2 каналаЧастота : 48,0 КГцМетод сжатия : С потерямиРазмер потока : 17,1 Мбайт (8%)Выравнивание : Соединение по промежуткамПродолжительность промежутка : 40 мс. (1,00 видеокадр)Время предзагрузки промежутка : 504 мс.Библиотека кодирования : LAME3.99rНастройки программы : -m s -V 4 -q 2 -lowpass 17 -b 128
Скриншоты

_________________
Показать сообщения:    

Текущее время: Сегодня 02:16

Часовой пояс: GMT



Вы не можете начинать темы
Вы не можете отвечать на сообщения
Вы не можете редактировать свои сообщения
Вы не можете удалять свои сообщения
Вы не можете голосовать в опросах
Вы не можете прикреплять файлы к сообщениям
Вы не можете скачивать файлы